  0
SECTION
  2
HEADER
  9
$ACADVER
  1
AC1015
  9
$ACADMAINTVER
 70
    20
  9
$DWGCODEPAGE
  3
ANSI_1252
  9
$INSBASE
 10
0.0
 20
0.0
 30
0.0
  9
$EXTMIN
 10
601.9688851410876
 20
469.0357307138363
 30
-0.0000000000010856
  9
$EXTMAX
 10
803.7942044777821
 20
732.2988746386293
 30
0.0
  9
$LIMMIN
 10
0.0
 20
0.0
  9
$LIMMAX
 10
420.0
 20
297.0
  9
$ORTHOMODE
 70
     1
  9
$REGENMODE
 70
     1
  9
$FILLMODE
 70
     1
  9
$QTEXTMODE
 70
     0
  9
$MIRRTEXT
 70
     0
  9
$LTSCALE
 40
1.0
  9
$ATTMODE
 70
     1
  9
$TEXTSIZE
 40
2.5
  9
$TRACEWID
 40
1.0
  9
$TEXTSTYLE
  7
Standard
  9
$CLAYER
  8
0
  9
$CELTYPE
  6
ByLayer
  9
$CECOLOR
 62
   256
  9
$CELTSCALE
 40
1.0
  9
$DISPSILH
 70
     0
  9
$DIMSCALE
 40
1.0
  9
$DIMASZ
 40
3.0
  9
$DIMEXO
 40
10.0
  9
$DIMDLI
 40
10.0
  9
$DIMRND
 40
0.0
  9
$DIMDLE
 40
2.0
  9
$DIMEXE
 40
2.0
  9
$DIMTP
 40
0.0
  9
$DIMTM
 40
3.0
  9
$DIMTXT
 40
3.5
  9
$DIMCEN
 40
2.0
  9
$DIMTSZ
 40
0.0
  9
$DIMTOL
 70
     0
  9
$DIMLIM
 70
     0
  9
$DIMTIH
 70
     0
  9
$DIMTOH
 70
     0
  9
$DIMSE1
 70
     0
  9
$DIMSE2
 70
     0
  9
$DIMTAD
 70
     1
  9
$DIMZIN
 70
     9
  9
$DIMBLK
  1

  9
$DIMASO
 70
     1
  9
$DIMSHO
 70
     1
  9
$DIMPOST
  1

  9
$DIMAPOST
  1

  9
$DIMALT
 70
     0
  9
$DIMALTD
 70
     2
  9
$DIMALTF
 40
0.03937
  9
$DIMLFAC
 40
1.0
  9
$DIMTOFL
 70
     1
  9
$DIMTVP
 40
0.0
  9
$DIMTIX
 70
     0
  9
$DIMSOXD
 70
     0
  9
$DIMSAH
 70
     0
  9
$DIMBLK1
  1

  9
$DIMBLK2
  1

  9
$DIMSTYLE
  2
ISO3098B
  9
$DIMCLRD
 70
     1
  9
$DIMCLRE
 70
     1
  9
$DIMCLRT
 70
     3
  9
$DIMTFAC
 40
0.2857142857142857
  9
$DIMGAP
 40
1.199999999999999
  9
$DIMJUST
 70
     0
  9
$DIMSD1
 70
     0
  9
$DIMSD2
 70
     0
  9
$DIMTOLJ
 70
     1
  9
$DIMTZIN
 70
     9
  9
$DIMALTZ
 70
     1
  9
$DIMALTTZ
 70
     1
  9
$DIMUPT
 70
     0
  9
$DIMDEC
 70
     2
  9
$DIMTDEC
 70
     2
  9
$DIMALTU
 70
     2
  9
$DIMALTTD
 70
     2
  9
$DIMTXSTY
  7
ISO3098B
  9
$DIMAUNIT
 70
     0
  9
$DIMADEC
 70
     0
  9
$DIMALTRND
 40
0.0
  9
$DIMAZIN
 70
     0
  9
$DIMDSEP
 70
    46
  9
$DIMATFIT
 70
     3
  9
$DIMFRAC
 70
     0
  9
$DIMLDRBLK
  1

  9
$DIMLUNIT
 70
     2
  9
$DIMLWD
 70
    -2
  9
$DIMLWE
 70
    -2
  9
$DIMTMOVE
 70
     0
  9
$LUNITS
 70
     2
  9
$LUPREC
 70
     4
  9
$SKETCHINC
 40
1.0
  9
$FILLETRAD
 40
7.0
  9
$AUNITS
 70
     0
  9
$AUPREC
 70
     0
  9
$MENU
  1
.
  9
$ELEVATION
 40
0.0
  9
$PELEVATION
 40
0.0
  9
$THICKNESS
 40
0.0
  9
$LIMCHECK
 70
     0
  9
$CHAMFERA
 40
0.0
  9
$CHAMFERB
 40
0.0
  9
$CHAMFERC
 40
0.0
  9
$CHAMFERD
 40
0.0
  9
$SKPOLY
 70
     0
  9
$TDCREATE
 40
2454571.574666042
  9
$TDUCREATE
 40
2454571.157999375
  9
$TDUPDATE
 40
2454651.425554514
  9
$TDUUPDATE
 40
2454651.008887847
  9
$TDINDWG
 40
0.1904702894
  9
$TDUSRTIMER
 40
0.1904702894
  9
$USRTIMER
 70
     1
  9
$ANGBASE
 50
0.0
  9
$ANGDIR
 70
     0
  9
$PDMODE
 70
     0
  9
$PDSIZE
 40
0.0
  9
$PLINEWID
 40
0.0
  9
$SPLFRAME
 70
     0
  9
$SPLINETYPE
 70
     6
  9
$SPLINESEGS
 70
     8
  9
$HANDSEED
  5
12C4
  9
$SURFTAB1
 70
     6
  9
$SURFTAB2
 70
     6
  9
$SURFTYPE
 70
     6
  9
$SURFU
 70
     6
  9
$SURFV
 70
     6
  9
$UCSBASE
  2

  9
$UCSNAME
  2

  9
$UCSORG
 10
0.0
 20
0.0
 30
0.0
  9
$UCSXDIR
 10
1.0
 20
0.0
 30
0.0
  9
$UCSYDIR
 10
0.0
 20
1.0
 30
0.0
  9
$UCSORTHOREF
  2

  9
$UCSORTHOVIEW
 70
     0
  9
$UCSORGTOP
 10
0.0
 20
0.0
 30
0.0
  9
$UCSORGBOTTOM
 10
0.0
 20
0.0
 30
0.0
  9
$UCSORGLEFT
 10
0.0
 20
0.0
 30
0.0
  9
$UCSORGRIGHT
 10
0.0
 20
0.0
 30
0.0
  9
$UCSORGFRONT
 10
0.0
 20
0.0
 30
0.0
  9
$UCSORGBACK
 10
0.0
 20
0.0
 30
0.0
  9
$PUCSBASE
  2

  9
$PUCSNAME
  2

  9
$PUCSORG
 10
0.0
 20
0.0
 30
0.0
  9
$PUCSXDIR
 10
1.0
 20
0.0
 30
0.0
  9
$PUCSYDIR
 10
0.0
 20
1.0
 30
0.0
  9
$PUCSORTHOREF
  2

  9
$PUCSORTHOVIEW
 70
     0
  9
$PUCSORGTOP
 10
0.0
 20
0.0
 30
0.0
  9
$PUCSORGBOTTOM
 10
0.0
 20
0.0
 30
0.0
  9
$PUCSORGLEFT
 10
0.0
 20
0.0
 30
0.0
  9
$PUCSORGRIGHT
 10
0.0
 20
0.0
 30
0.0
  9
$PUCSORGFRONT
 10
0.0
 20
0.0
 30
0.0
  9
$PUCSORGBACK
 10
0.0
 20
0.0
 30
0.0
  9
$USERI1
 70
     0
  9
$USERI2
 70
     0
  9
$USERI3
 70
     0
  9
$USERI4
 70
     0
  9
$USERI5
 70
     0
  9
$USERR1
 40
0.0
  9
$USERR2
 40
0.0
  9
$USERR3
 40
0.0
  9
$USERR4
 40
0.0
  9
$USERR5
 40
0.0
  9
$WORLDVIEW
 70
     1
  9
$SHADEDGE
 70
     3
  9
$SHADEDIF
 70
    70
  9
$TILEMODE
 70
     1
  9
$MAXACTVP
 70
    64
  9
$PINSBASE
 10
0.0
 20
0.0
 30
0.0
  9
$PLIMCHECK
 70
     0
  9
$PEXTMIN
 10
0.0
 20
0.0
 30
0.0
  9
$PEXTMAX
 10
0.0
 20
0.0
 30
0.0
  9
$PLIMMIN
 10
0.0
 20
0.0
  9
$PLIMMAX
 10
12.0
 20
9.0
  9
$UNITMODE
 70
     0
  9
$VISRETAIN
 70
     1
  9
$PLINEGEN
 70
     0
  9
$PSLTSCALE
 70
     1
  9
$TREEDEPTH
 70
  3020
  9
$CMLSTYLE
  2
Standard
  9
$CMLJUST
 70
     0
  9
$CMLSCALE
 40
20.0
  9
$PROXYGRAPHICS
 70
     1
  9
$MEASUREMENT
 70
     1
  9
$CELWEIGHT
370
    -1
  9
$ENDCAPS
280
     0
  9
$JOINSTYLE
280
     0
  9
$LWDISPLAY
290
     0
  9
$INSUNITS
 70
     4
  9
$HYPERLINKBASE
  1

  9
$STYLESHEET
  1

  9
$XEDIT
290
     1
  9
$CEPSNTYPE
380
     0
  9
$PSTYLEMODE
290
     1
  9
$FINGERPRINTGUID
  2
{51A37FD9-39D5-49B8-B1D6-07EF9C98186C}
  9
$VERSIONGUID
  2
{EF77B85E-A5C9-449B-A2A9-809A6E137C94}
  9
$EXTNAMES
290
     1
  9
$PSVPSCALE
 40
0.0
  9
$OLESTARTUP
290
     0
  0
ENDSEC
  0
SECTION
  2
CLASSES
  0
CLASS
  1
ACDBDICTIONARYWDFLT
  2
AcDbDictionaryWithDefault
  3
ObjectDBX Classes
 90
        0
280
     0
281
     0
  0
CLASS
  1
ACDBPLACEHOLDER
  2
AcDbPlaceHolder
  3
ObjectDBX Classes
 90
        0
280
     0
281
     0
  0
CLASS
  1
LAYOUT
  2
AcDbLayout
  3
ObjectDBX Classes
 90
        0
280
     0
281
     0
  0
CLASS
  1
DICTIONARYVAR
  2
AcDbDictionaryVar
  3
ObjectDBX Classes
 90
        0
280
     0
281
     0
  0
CLASS
  1
TABLESTYLE
  2
AcDbTableStyle
  3
ObjectDBX Classes
 90
     4095
280
     0
281
     0
  0
CLASS
  1
MATERIAL
  2
AcDbMaterial
  3
ObjectDBX Classes
 90
     1153
280
     0
281
     0
  0
CLASS
  1
VISUALSTYLE
  2
AcDbVisualStyle
  3
ObjectDBX Classes
 90
     4095
280
     0
281
     0
  0
CLASS
  1
SCALE
  2
AcDbScale
  3
ObjectDBX Classes
 90
     1153
280
     0
281
     0
  0
CLASS
  1
MLEADERSTYLE
  2
AcDbMLeaderStyle
  3
ACDB_MLEADERSTYLE_CLASS
 90
     4095
280
     0
281
     0
  0
CLASS
  1
CELLSTYLEMAP
  2
AcDbCellStyleMap
  3
ObjectDBX Classes
 90
     1152
280
     0
281
     0
  0
CLASS
  1
ACAD_EVALUATION_GRAPH
  2
AcDbEvalGraph
  3
ObjectDBX Classes
 90
    33921
280
     0
281
     0
  0
CLASS
  1
ACAECUSTOBJ
  2
AcAeEditorObj
  3
AcAeEditorObj
 90
    33792
280
     0
281
     0
  0
CLASS
  1
SORTENTSTABLE
  2
AcDbSortentsTable
  3
ObjectDBX Classes
 90
        0
280
     0
281
     0
  0
CLASS
  1
ACDB_DYNAMICBLOCKPURGEPREVENTER_VERSION
  2
AcDbDynamicBlockPurgePreventer
  3
ObjectDBX Classes
 90
    33921
280
     0
281
     0
  0
CLASS
  1
DIMASSOC
  2
AcDbDimAssoc
  3
"AcDbDimAssoc|Product Desc:     AcDim ARX App For Dimension|Company:          Autodesk, Inc.|WEB Address:      www.autodesk.com"
 90
        0
280
     0
281
     0
  0
ENDSEC
  0
SECTION
  2
TABLES
  0
TABLE
  2
VPORT
  5
8
330
0
100
AcDbSymbolTable
 70
     1
  0
VPORT
  5
EA
330
8
100
AcDbSymbolTableRecord
100
AcDbViewportTableRecord
  2
*Active
 70
     0
 10
0.0
 20
0.0
 11
1.0
 21
1.0
 12
702.9010516210187
 22
600.6923257046829
 13
0.0
 23
0.0
 14
10.0
 24
10.0
 15
10.0
 25
10.0
 16
0.0
 26
0.0
 36
1.0
 17
0.0
 27
0.0
 37
0.0
 40
265.3698557953844
 41
1.569961489088575
 42
50.0
 43
0.0
 44
0.0
 50
0.0
 51
0.0
 71
     0
 72
  1000
 73
     1
 74
     3
 75
     0
 76
     0
 77
     0
 78
     0
281
     0
 65
     1
110
0.0
120
0.0
130
0.0
111
1.0
121
0.0
131
0.0
112
0.0
122
1.0
132
0.0
 79
     0
146
0.0
  0
ENDTAB
  0
TABLE
  2
LTYPE
  5
5
330
0
100
AcDbSymbolTable
 70
     1
  0
LTYPE
  5
14
330
5
100
AcDbSymbolTableRecord
100
AcDbLinetypeTableRecord
  2
ByBlock
 70
     0
  3

 72
    65
 73
     0
 40
0.0
  0
LTYPE
  5
15
330
5
100
AcDbSymbolTableRecord
100
AcDbLinetypeTableRecord
  2
ByLayer
 70
     0
  3

 72
    65
 73
     0
 40
0.0
  0
LTYPE
  5
16
330
5
100
AcDbSymbolTableRecord
100
AcDbLinetypeTableRecord
  2
Continuous
 70
     0
  3
Solid line
 72
    65
 73
     0
 40
0.0
  0
ENDTAB
  0
TABLE
  2
LAYER
  5
2
102
{ACAD_XDICTIONARY
360
1D3
102
}
330
0
100
AcDbSymbolTable
 70
     2
  0
LAYER
  5
10
102
{ACAD_XDICTIONARY
360
13C
102
}
330
2
100
AcDbSymbolTableRecord
100
AcDbLayerTableRecord
  2
0
 70
     0
 62
     7
  6
Continuous
370
    -3
390
F
  0
LAYER
  5
3F0
330
2
100
AcDbSymbolTableRecord
100
AcDbLayerTableRecord
  2
DEFPOINTS
 70
     0
 62
     7
  6
Continuous
290
     0
370
    -3
390
F
  0
ENDTAB
  0
TABLE
  2
STYLE
  5
3
330
0
100
AcDbSymbolTable
 70
     2
  0
STYLE
  5
11
330
3
100
AcDbSymbolTableRecord
100
AcDbTextStyleTableRecord
  2
Standard
 70
     0
 40
0.0
 41
1.0
 50
0.0
 71
     0
 42
2.5
  3
txt
  4

  0
STYLE
  5
1AF
330
3
100
AcDbSymbolTableRecord
100
AcDbTextStyleTableRecord
  2
ISO3098B
 70
     0
 40
0.0
 41
1.0
 50
0.0
 71
     0
 42
3.5
  3
ISO3098B.SHX
  4

  0
ENDTAB
  0
TABLE
  2
VIEW
  5
6
330
0
100
AcDbSymbolTable
 70
     0
  0
ENDTAB
  0
TABLE
  2
UCS
  5
7
330
0
100
AcDbSymbolTable
 70
     0
  0
ENDTAB
  0
TABLE
  2
APPID
  5
9
330
0
100
AcDbSymbolTable
 70
    13
  0
APPID
  5
12
330
9
100
AcDbSymbolTableRecord
100
AcDbRegAppTableRecord
  2
ACAD
 70
     0
  0
APPID
  5
9E
330
9
100
AcDbSymbolTableRecord
100
AcDbRegAppTableRecord
  2
ACAD_PSEXT
 70
     0
  0
APPID
  5
133
330
9
100
AcDbSymbolTableRecord
100
AcDbRegAppTableRecord
  2
AcadAnnoPO
 70
     0
  0
APPID
  5
134
330
9
100
AcDbSymbolTableRecord
100
AcDbRegAppTableRecord
  2
AcadAnnotative
 70
     0
  0
APPID
  5
135
330
9
100
AcDbSymbolTableRecord
100
AcDbRegAppTableRecord
  2
ACAD_DSTYLE_DIMJAG
 70
     0
  0
APPID
  5
136
330
9
100
AcDbSymbolTableRecord
100
AcDbRegAppTableRecord
  2
ACAD_DSTYLE_DIMTALN
 70
     0
  0
APPID
  5
165
330
9
100
AcDbSymbolTableRecord
100
AcDbRegAppTableRecord
  2
ACAD_MLEADERVER
 70
     0
  0
APPID
  5
1CE
330
9
100
AcDbSymbolTableRecord
100
AcDbRegAppTableRecord
  2
AcAecLayerStandard
 70
     0
  0
APPID
  5
21A
330
9
100
AcDbSymbolTableRecord
100
AcDbRegAppTableRecord
  2
ACAUTHENVIRON
 70
     0
  0
APPID
  5
263
330
9
100
AcDbSymbolTableRecord
100
AcDbRegAppTableRecord
  2
AcDbDynamicBlockTrueName
 70
     0
  0
APPID
  5
264
330
9
100
AcDbSymbolTableRecord
100
AcDbRegAppTableRecord
  2
AcDbDynamicBlockGUID
 70
     0
  0
APPID
  5
266
330
9
100
AcDbSymbolTableRecord
100
AcDbRegAppTableRecord
  2
AcDbBlockRepETag
 70
     0
  0
APPID
  5
3C2
330
9
100
AcDbSymbolTableRecord
100
AcDbRegAppTableRecord
  2
ACAD_EXEMPT_FROM_CAD_STANDARDS
 70
     0
  0
ENDTAB
  0
TABLE
  2
DIMSTYLE
  5
A
330
0
100
AcDbSymbolTable
 70
     2
100
AcDbDimStyleTable
 71
     1
340
1B0
  0
DIMSTYLE
105
1B0
102
{ACAD_REACTORS
330
EA1
330
ECB
330
EEC
330
F27
330
F46
330
F5E
330
1148
102
}
330
A
100
AcDbSymbolTableRecord
100
AcDbDimStyleTableRecord
  2
ISO3098B
 70
     0
 41
3.0
 42
10.0
 43
10.0
 44
2.0
 46
2.0
 48
3.0
 73
     0
 74
     0
 77
     1
 78
     9
140
3.5
141
2.0
143
0.03937
146
0.2857142857142857
147
1.199999999999999
172
     1
176
     1
177
     1
178
     3
271
     2
272
     2
284
     9
285
     1
286
     1
340
1AF
1001
ACAD_DSTYLE_DIMJAG
1070
   388
1040
1.5
1001
ACAD_DSTYLE_DIMTALN
1070
   392
1070
     0
  0
DIMSTYLE
105
8A6
330
A
100
AcDbSymbolTableRecord
100
AcDbDimStyleTableRecord
  2
STANDARD
 70
     0
340
11
  0
ENDTAB
  0
TABLE
  2
BLOCK_RECORD
  5
1
330
0
100
AcDbSymbolTable
 70
     7
  0
BLOCK_RECORD
  5
1F
102
{ACAD_XDICTIONARY
360
3B0
102
}
330
1
100
AcDbSymbolTableRecord
100
AcDbBlockTableRecord
  2
*Model_Space
340
22
  0
BLOCK_RECORD
  5
D2
330
1
100
AcDbSymbolTableRecord
100
AcDbBlockTableRecord
  2
*Paper_Space
340
D3
  0
BLOCK_RECORD
  5
EA2
330
1
100
AcDbSymbolTableRecord
100
AcDbBlockTableRecord
  2
*D0
340
0
  0
BLOCK_RECORD
  5
ECC
330
1
100
AcDbSymbolTableRecord
100
AcDbBlockTableRecord
  2
*D1
340
0
  0
BLOCK_RECORD
  5
EED
330
1
100
AcDbSymbolTableRecord
100
AcDbBlockTableRecord
  2
*D2
340
0
  0
BLOCK_RECORD
  5
F28
330
1
100
AcDbSymbolTableRecord
100
AcDbBlockTableRecord
  2
*D3
340
0
  0
BLOCK_RECORD
  5
F47
330
1
100
AcDbSymbolTableRecord
100
AcDbBlockTableRecord
  2
*D4
340
0
  0
BLOCK_RECORD
  5
F5F
330
1
100
AcDbSymbolTableRecord
100
AcDbBlockTableRecord
  2
*D5
340
0
  0
BLOCK_RECORD
  5
1149
330
1
100
AcDbSymbolTableRecord
100
AcDbBlockTableRecord
  2
*D6
340
0
  0
ENDTAB
  0
ENDSEC
  0
SECTION
  2
BLOCKS
  0
BLOCK
  5
20
330
1F
100
AcDbEntity
  8
0
100
AcDbBlockBegin
  2
*Model_Space
 70
     0
 10
0.0
 20
0.0
 30
0.0
  3
*Model_Space
  1

  0
ENDBLK
  5
21
330
1F
100
AcDbEntity
  8
0
100
AcDbBlockEnd
  0
BLOCK
  5
D4
330
D2
100
AcDbEntity
 67
     1
  8
0
100
AcDbBlockBegin
  2
*Paper_Space
 70
     0
 10
0.0
 20
0.0
 30
0.0
  3
*Paper_Space
  1

  0
ENDBLK
  5
D5
330
D2
100
AcDbEntity
 67
     1
  8
0
100
AcDbBlockEnd
  0
BLOCK
  5
EA3
330
EA2
100
AcDbEntity
  8
0
100
AcDbBlockBegin
  2
*D0
 70
     1
 10
0.0
 20
0.0
 30
0.0
  3
*D0
  1

  0
LINE
  5
12A3
330
EA2
100
AcDbEntity
  8
0
 62
     1
370
    -2
100
AcDbLine
 10
713.7562585079994
 20
699.30522449866
 30
-0.0000000000005428
 11
713.7562585079994
 21
729.7738746386292
 31
-0.0000000000005428
  0
LINE
  5
12A4
330
EA2
100
AcDbEntity
  8
0
 62
     1
370
    -2
100
AcDbLine
 10
778.2806826092645
 20
699.3052244986597
 30
-0.0000000000005428
 11
778.2806826092645
 21
729.7738746386292
 31
-0.0000000000005428
  0
LINE
  5
12A5
330
EA2
100
AcDbEntity
  8
0
 62
     1
370
    -2
100
AcDbLine
 10
716.7562585079994
 20
727.7738746386291
 30
-0.0000000000005428
 11
775.2806826092645
 21
727.7738746386291
 31
-0.0000000000005428
  0
SOLID
  5
12A6
330
EA2
100
AcDbEntity
  8
0
 62
     1
100
AcDbTrace
 10
716.7562585079994
 20
728.2738746386292
 30
-0.0000000000005428
 11
716.7562585079994
 21
727.2738746386291
 31
-0.0000000000005428
 12
713.7562585079994
 22
727.7738746386291
 32
-0.0000000000005428
 13
713.7562585079994
 23
727.7738746386291
 33
-0.0000000000005428
  0
SOLID
  5
12A7
330
EA2
100
AcDbEntity
  8
0
 62
     1
100
AcDbTrace
 10
775.2806826092645
 20
728.2738746386292
 30
-0.0000000000005428
 11
775.2806826092645
 21
727.2738746386291
 31
-0.0000000000005428
 12
778.2806826092645
 22
727.7738746386291
 32
-0.0000000000005428
 13
778.2806826092645
 23
727.7738746386291
 33
-0.0000000000005428
  0
MTEXT
  5
12A8
330
EA2
100
AcDbEntity
  8
0
 62
     3
100
AcDbMText
 10
746.0184705586319
 20
730.7238746386292
 30
-0.0000000000005428
 40
3.5
 41
0.0
 71
     5
 72
     1
  1
\A1;65 Max
  7
ISO3098B
 73
     1
 44
1.0
1001
ACAD
1000
MTEXTBEGIN
1070
    73
1070
     1
1070
    44
1040
1.0
1070
    74
1070
     0
1000
MTEXTEND
  0
POINT
  5
12A9
330
EA2
100
AcDbEntity
  8
DEFPOINTS
 62
     0
100
AcDbPoint
 10
713.7562585079994
 20
689.3052244986599
 30
-0.0000000000005428
  0
POINT
  5
12AA
330
EA2
100
AcDbEntity
  8
DEFPOINTS
 62
     0
100
AcDbPoint
 10
778.2806826092645
 20
689.3052244986598
 30
-0.000000000000004
  0
POINT
  5
12AB
330
EA2
100
AcDbEntity
  8
DEFPOINTS
 62
     0
100
AcDbPoint
 10
778.2806826092645
 20
727.7738746386291
 30
-0.0000000000005428
  0
ENDBLK
  5
EA4
330
EA2
100
AcDbEntity
  8
0
100
AcDbBlockEnd
  0
BLOCK
  5
ECD
330
ECC
100
AcDbEntity
  8
0
100
AcDbBlockBegin
  2
*D1
 70
     1
 10
0.0
 20
0.0
 30
0.0
  3
*D1
  1

  0
LINE
  5
1276
330
ECC
100
AcDbEntity
  8
0
 62
     1
370
    -2
100
AcDbLine
 10
715.4562585079997
 20
489.70522449866
 30
-0.0000000000005428
 11
715.4562585079997
 21
469.0357307138363
 31
-0.0000000000005428
  0
LINE
  5
1277
330
ECC
100
AcDbEntity
  8
0
 62
     1
370
    -2
100
AcDbLine
 10
633.9562585079996
 20
494.2054228105885
 30
-0.0000000000005428
 11
633.9562585079996
 21
469.0357307138363
 31
-0.0000000000005428
  0
LINE
  5
1278
330
ECC
100
AcDbEntity
  8
0
 62
     1
370
    -2
100
AcDbLine
 10
712.4562585079996
 20
471.0357307138362
 30
-0.0000000000005428
 11
636.9562585079997
 21
471.0357307138362
 31
-0.0000000000005428
  0
SOLID
  5
1279
330
ECC
100
AcDbEntity
  8
0
 62
     1
100
AcDbTrace
 10
712.4562585079996
 20
471.5357307138362
 30
-0.0000000000005428
 11
712.4562585079996
 21
470.5357307138362
 31
-0.0000000000005428
 12
715.4562585079997
 22
471.0357307138362
 32
-0.0000000000005428
 13
715.4562585079997
 23
471.0357307138362
 33
-0.0000000000005428
  0
SOLID
  5
127A
330
ECC
100
AcDbEntity
  8
0
 62
     1
100
AcDbTrace
 10
636.9562585079997
 20
471.5357307138362
 30
-0.0000000000005428
 11
636.9562585079997
 21
470.5357307138362
 31
-0.0000000000005428
 12
633.9562585079996
 22
471.0357307138362
 32
-0.0000000000005428
 13
633.9562585079996
 23
471.0357307138362
 33
-0.0000000000005428
  0
MTEXT
  5
127B
330
ECC
100
AcDbEntity
  8
0
 62
     3
100
AcDbMText
 10
674.7062585079996
 20
473.9857307138363
 30
-0.0000000000005428
 40
3.5
 41
0.0
 71
     5
 72
     1
  1
\A1;81.5 Max.
  7
ISO3098B
 73
     1
 44
1.0
1001
ACAD
1000
MTEXTBEGIN
1070
    73
1070
     1
1070
    44
1040
1.0
1070
    74
1070
     0
1000
MTEXTEND
  0
POINT
  5
127C
330
ECC
100
AcDbEntity
  8
DEFPOINTS
 62
     0
100
AcDbPoint
 10
715.4562585079997
 20
499.7052244986599
 30
-0.0000000000005428
  0
POINT
  5
127D
330
ECC
100
AcDbEntity
  8
DEFPOINTS
 62
     0
100
AcDbPoint
 10
633.9562585079996
 20
504.2054228105885
 30
0.0
  0
POINT
  5
127E
330
ECC
100
AcDbEntity
  8
DEFPOINTS
 62
     0
100
AcDbPoint
 10
633.9562585079996
 20
471.0357307138362
 30
-0.0000000000005428
  0
ENDBLK
  5
ECE
330
ECC
100
AcDbEntity
  8
0
100
AcDbBlockEnd
  0
BLOCK
  5
EEE
330
EED
100
AcDbEntity
  8
0
100
AcDbBlockBegin
  2
*D2
 70
     1
 10
0.0
 20
0.0
 30
0.0
  3
*D2
  1

  0
LINE
  5
1220
330
EED
100
AcDbEntity
  8
0
 62
     1
370
    -2
100
AcDbLine
 10
634.099748676419
 20
493.0052244986602
 30
-0.0000000000005428
 11
604.495554482655
 21
493.0052244986602
 31
-0.0000000000005428
  0
LINE
  5
1221
330
EED
100
AcDbEntity
  8
0
 62
     1
370
    -2
100
AcDbLine
 10
710.4562585079995
 20
696.0052244986602
 30
-0.0000000000005428
 11
604.495554482655
 21
696.0052244986602
 31
-0.0000000000005428
  0
LINE
  5
1222
330
EED
100
AcDbEntity
  8
0
 62
     1
370
    -2
100
AcDbLine
 10
606.495554482655
 20
496.0052244986601
 30
-0.0000000000005428
 11
606.495554482655
 21
693.0052244986602
 31
-0.0000000000005428
  0
SOLID
  5
1223
330
EED
100
AcDbEntity
  8
0
 62
     1
100
AcDbTrace
 10
605.995554482655
 20
496.0052244986601
 30
-0.0000000000005428
 11
606.995554482655
 21
496.0052244986601
 31
-0.0000000000005428
 12
606.495554482655
 22
493.0052244986602
 32
-0.0000000000005428
 13
606.495554482655
 23
493.0052244986602
 33
-0.0000000000005428
  0
SOLID
  5
1224
330
EED
100
AcDbEntity
  8
0
 62
     1
100
AcDbTrace
 10
605.995554482655
 20
693.0052244986602
 30
-0.0000000000005428
 11
606.995554482655
 21
693.0052244986602
 31
-0.0000000000005428
 12
606.495554482655
 22
696.0052244986602
 32
-0.0000000000005428
 13
606.495554482655
 23
696.0052244986602
 33
-0.0000000000005428
  0
MTEXT
  5
1225
330
EED
100
AcDbEntity
  8
0
 62
     3
100
AcDbMText
 10
603.5455544826549
 20
594.5052244986603
 30
-0.0000000000005428
 40
3.5
 41
0.0
 71
     5
 72
     1
  1
\A1;203 O/A Nominal
  7
ISO3098B
 11
0.0000000000000001
 21
1.0
 31
0.0
 73
     1
 44
1.0
1001
ACAD
1000
MTEXTBEGIN
1070
    73
1070
     1
1070
    44
1040
1.0
1070
    74
1070
     0
1000
MTEXTEND
  0
POINT
  5
1226
330
EED
100
AcDbEntity
  8
DEFPOINTS
 62
     0
100
AcDbPoint
 10
644.099748676419
 20
493.0052244986601
 30
0.0
  0
POINT
  5
1227
330
EED
100
AcDbEntity
  8
DEFPOINTS
 62
     0
100
AcDbPoint
 10
720.4562585079996
 20
696.0052244986602
 30
0.0
  0
POINT
  5
1228
330
EED
100
AcDbEntity
  8
DEFPOINTS
 62
     0
100
AcDbPoint
 10
606.495554482655
 20
696.0052244986602
 30
-0.0000000000005428
  0
ENDBLK
  5
EEF
330
EED
100
AcDbEntity
  8
0
100
AcDbBlockEnd
  0
BLOCK
  5
F29
330
F28
100
AcDbEntity
  8
0
100
AcDbBlockBegin
  2
*D3
 70
     1
 10
0.0
 20
0.0
 30
0.0
  3
*D3
  1

  0
LINE
  5
11A2
330
F28
100
AcDbEntity
  8
0
 62
     1
370
    -2
100
AcDbLine
 10
646.019984503401
 20
523.5769083150865
 30
-0.0000000000005428
 11
646.019984503401
 21
533.3620756980568
 31
-0.0000000000005428
  0
LINE
  5
11A3
330
F28
100
AcDbEntity
  8
0
 62
     1
370
    -2
100
AcDbLine
 10
713.7562585079994
 20
532.4547103977882
 30
-0.0000000000005428
 11
713.7562585079994
 21
533.3620756980568
 31
-0.0000000000005428
  0
LINE
  5
11A4
330
F28
100
AcDbEntity
  8
0
 62
     1
370
    -2
100
AcDbLine
 10
649.019984503401
 20
531.3620756980568
 30
-0.0000000000005428
 11
710.7562585079993
 21
531.3620756980568
 31
-0.0000000000005428
  0
SOLID
  5
11A5
330
F28
100
AcDbEntity
  8
0
 62
     1
100
AcDbTrace
 10
649.019984503401
 20
531.8620756980569
 30
-0.0000000000005428
 11
649.019984503401
 21
530.8620756980568
 31
-0.0000000000005428
 12
646.019984503401
 22
531.3620756980568
 32
-0.0000000000005428
 13
646.019984503401
 23
531.3620756980568
 33
-0.0000000000005428
  0
SOLID
  5
11A6
330
F28
100
AcDbEntity
  8
0
 62
     1
100
AcDbTrace
 10
710.7562585079993
 20
531.8620756980569
 30
-0.0000000000005428
 11
710.7562585079993
 21
530.8620756980568
 31
-0.0000000000005428
 12
713.7562585079994
 22
531.3620756980568
 32
-0.0000000000005428
 13
713.7562585079994
 23
531.3620756980568
 33
-0.0000000000005428
  0
MTEXT
  5
11A7
330
F28
100
AcDbEntity
  8
0
 62
     3
100
AcDbMText
 10
679.8881215057001
 20
534.3120756980568
 30
-0.0000000000005428
 40
3.5
 41
0.0
 71
     5
 72
     1
  1
\A1;68 Min.
  7
ISO3098B
 73
     1
 44
1.0
1001
ACAD
1000
MTEXTBEGIN
1070
    73
1070
     1
1070
    44
1040
1.0
1070
    74
1070
     0
1000
MTEXTEND
  0
POINT
  5
11A8
330
F28
100
AcDbEntity
  8
DEFPOINTS
 62
     0
100
AcDbPoint
 10
646.019984503401
 20
513.5769083150864
 30
-0.0000000000005428
  0
POINT
  5
11A9
330
F28
100
AcDbEntity
  8
DEFPOINTS
 62
     0
100
AcDbPoint
 10
713.7562585079994
 20
522.4547103977881
 30
-0.0000000000005428
  0
POINT
  5
11AA
330
F28
100
AcDbEntity
  8
DEFPOINTS
 62
     0
100
AcDbPoint
 10
713.7562585079994
 20
531.3620756980568
 30
-0.0000000000005428
  0
ENDBLK
  5
F2A
330
F28
100
AcDbEntity
  8
0
100
AcDbBlockEnd
  0
BLOCK
  5
F48
330
F47
100
AcDbEntity
  8
0
100
AcDbBlockBegin
  2
*D4
 70
     1
 10
0.0
 20
0.0
 30
0.0
  3
*D4
  1

  0
LINE
  5
1264
330
F47
100
AcDbEntity
  8
0
 62
     1
370
    -2
100
AcDbLine
 10
635.2858517271759
 20
515.1102214164693
 30
-0.0000000000005428
 11
619.330630057678
 21
515.1102214164693
 31
-0.0000000000005428
  0
LINE
  5
1265
330
F47
100
AcDbEntity
  8
0
 62
     1
370
    -2
100
AcDbLine
 10
710.4562585079995
 20
696.00522449866
 30
-0.0000000000005428
 11
619.330630057678
 21
696.00522449866
 31
-0.0000000000005428
  0
LINE
  5
1266
330
F47
100
AcDbEntity
  8
0
 62
     1
370
    -2
100
AcDbLine
 10
621.330630057678
 20
518.1102214164694
 30
-0.0000000000005428
 11
621.330630057678
 21
693.00522449866
 31
-0.0000000000005428
  0
SOLID
  5
1267
330
F47
100
AcDbEntity
  8
0
 62
     1
100
AcDbTrace
 10
620.830630057678
 20
518.1102214164694
 30
-0.0000000000005428
 11
621.830630057678
 21
518.1102214164694
 31
-0.0000000000005428
 12
621.330630057678
 22
515.1102214164693
 32
-0.0000000000005428
 13
621.330630057678
 23
515.1102214164693
 33
-0.0000000000005428
  0
SOLID
  5
1268
330
F47
100
AcDbEntity
  8
0
 62
     1
100
AcDbTrace
 10
620.830630057678
 20
693.00522449866
 30
-0.0000000000005428
 11
621.830630057678
 21
693.00522449866
 31
-0.0000000000005428
 12
621.330630057678
 22
696.00522449866
 32
-0.0000000000005428
 13
621.330630057678
 23
696.00522449866
 33
-0.0000000000005428
  0
MTEXT
  5
1269
330
F47
100
AcDbEntity
  8
0
 62
     3
100
AcDbMText
 10
618.3806300576779
 20
605.5577229575647
 30
-0.0000000000005428
 40
3.5
 41
0.0
 71
     5
 72
     1
  1
\A1;181 Min.
  7
ISO3098B
 11
0.0000000000000001
 21
1.0
 31
0.0
 73
     1
 44
1.0
1001
ACAD
1000
MTEXTBEGIN
1070
    73
1070
     1
1070
    44
1040
1.0
1070
    74
1070
     0
1000
MTEXTEND
  0
POINT
  5
126A
330
F47
100
AcDbEntity
  8
DEFPOINTS
 62
     0
100
AcDbPoint
 10
645.2858517271758
 20
515.1102214164693
 30
0.0
  0
POINT
  5
126B
330
F47
100
AcDbEntity
  8
DEFPOINTS
 62
     0
100
AcDbPoint
 10
720.4562585079996
 20
696.00522449866
 30
-0.0000000000005428
  0
POINT
  5
126C
330
F47
100
AcDbEntity
  8
DEFPOINTS
 62
     0
100
AcDbPoint
 10
621.330630057678
 20
696.00522449866
 30
-0.0000000000005428
  0
ENDBLK
  5
F49
330
F47
100
AcDbEntity
  8
0
100
AcDbBlockEnd
  0
BLOCK
  5
F60
330
F5F
100
AcDbEntity
  8
0
100
AcDbBlockBegin
  2
*D5
 70
     1
 10
0.0
 20
0.0
 30
0.0
  3
*D5
  1

  0
LINE
  5
126D
330
F5F
100
AcDbEntity
  8
0
 62
     1
370
    -2
100
AcDbLine
 10
718.7562585079996
 20
493.0052244986599
 30
-0.0000000000005428
 11
803.7942044777821
 21
493.0052244986599
 31
-0.0000000000005428
  0
LINE
  5
126E
330
F5F
100
AcDbEntity
  8
0
 62
     1
370
    -2
100
AcDbLine
 10
779.0562585079997
 20
674.20522449866
 30
-0.0000000000005428
 11
803.7942044777821
 21
674.20522449866
 31
-0.0000000000005428
  0
LINE
  5
126F
330
F5F
100
AcDbEntity
  8
0
 62
     1
370
    -2
100
AcDbLine
 10
801.7942044777822
 20
496.00522449866
 30
-0.0000000000005428
 11
801.7942044777822
 21
671.20522449866
 31
-0.0000000000005428
  0
SOLID
  5
1270
330
F5F
100
AcDbEntity
  8
0
 62
     1
100
AcDbTrace
 10
801.2942044777821
 20
496.00522449866
 30
-0.0000000000005428
 11
802.2942044777821
 21
496.00522449866
 31
-0.0000000000005428
 12
801.7942044777822
 22
493.0052244986599
 32
-0.0000000000005428
 13
801.7942044777822
 23
493.0052244986599
 33
-0.0000000000005428
  0
SOLID
  5
1271
330
F5F
100
AcDbEntity
  8
0
 62
     1
100
AcDbTrace
 10
801.2942044777821
 20
671.20522449866
 30
-0.0000000000005428
 11
802.2942044777821
 21
671.20522449866
 31
-0.0000000000005428
 12
801.7942044777822
 22
674.20522449866
 32
-0.0000000000005428
 13
801.7942044777822
 23
674.20522449866
 33
-0.0000000000005428
  0
MTEXT
  5
1272
330
F5F
100
AcDbEntity
  8
0
 62
     3
100
AcDbMText
 10
798.844204477782
 20
583.6052244986602
 30
-0.0000000000005428
 40
3.5
 41
0.0
 71
     5
 72
     1
  1
\A1;181 Min.
  7
ISO3098B
 11
0.0000000000000001
 21
1.0
 31
0.0
 73
     1
 44
1.0
1001
ACAD
1000
MTEXTBEGIN
1070
    73
1070
     1
1070
    44
1040
1.0
1070
    74
1070
     0
1000
MTEXTEND
  0
POINT
  5
1273
330
F5F
100
AcDbEntity
  8
DEFPOINTS
 62
     0
100
AcDbPoint
 10
708.7562585079996
 20
493.0052244986599
 30
-0.0000000000005428
  0
POINT
  5
1274
330
F5F
100
AcDbEntity
  8
DEFPOINTS
 62
     0
100
AcDbPoint
 10
769.0562585079996
 20
674.20522449866
 30
0.0
  0
POINT
  5
1275
330
F5F
100
AcDbEntity
  8
DEFPOINTS
 62
     0
100
AcDbPoint
 10
801.7942044777822
 20
674.20522449866
 30
-0.0000000000005428
  0
ENDBLK
  5
F61
330
F5F
100
AcDbEntity
  8
0
100
AcDbBlockEnd
  0
BLOCK
  5
114A
330
1149
100
AcDbEntity
  8
0
100
AcDbBlockBegin
  2
*D6
 70
     1
 10
0.0
 20
0.0
 30
0.0
  3
*D6
  1

  0
LINE
  5
11BD
330
1149
100
AcDbEntity
  8
0
 62
     1
370
    -2
100
AcDbLine
 10
713.7562585079994
 20
699.30522449866
 30
-0.0000000000005428
 11
713.7562585079994
 21
716.0572858647308
 31
-0.0000000000005428
  0
LINE
  5
11BE
330
1149
100
AcDbEntity
  8
0
 62
     1
370
    -2
100
AcDbLine
 10
765.2712585079998
 20
685.90522449866
 30
-0.0000000000005428
 11
765.2712585079998
 21
716.0572858647308
 31
-0.0000000000005428
  0
LINE
  5
11BF
330
1149
100
AcDbEntity
  8
0
 62
     1
370
    -2
100
AcDbLine
 10
716.7562585079994
 20
714.0572858647308
 30
-0.0000000000005428
 11
762.2712585079998
 21
714.0572858647308
 31
-0.0000000000005428
  0
SOLID
  5
11C0
330
1149
100
AcDbEntity
  8
0
 62
     1
100
AcDbTrace
 10
716.7562585079994
 20
714.5572858647308
 30
-0.0000000000005428
 11
716.7562585079994
 21
713.5572858647308
 31
-0.0000000000005428
 12
713.7562585079994
 22
714.0572858647308
 32
-0.0000000000005428
 13
713.7562585079994
 23
714.0572858647308
 33
-0.0000000000005428
  0
SOLID
  5
11C1
330
1149
100
AcDbEntity
  8
0
 62
     1
100
AcDbTrace
 10
762.2712585079998
 20
714.5572858647308
 30
-0.0000000000005428
 11
762.2712585079998
 21
713.5572858647308
 31
-0.0000000000005428
 12
765.2712585079998
 22
714.0572858647308
 32
-0.0000000000005428
 13
765.2712585079998
 23
714.0572858647308
 33
-0.0000000000005428
  0
MTEXT
  5
11C2
330
1149
100
AcDbEntity
  8
0
 62
     3
100
AcDbMText
 10
739.5137585079996
 20
717.0072858647309
 30
-0.0000000000005428
 40
3.5
 41
0.0
 71
     5
 72
     1
  1
\A1;52 Min.
  7
ISO3098B
 73
     1
 44
1.0
1001
ACAD
1000
MTEXTBEGIN
1070
    73
1070
     1
1070
    44
1040
1.0
1070
    74
1070
     0
1000
MTEXTEND
  0
POINT
  5
11C3
330
1149
100
AcDbEntity
  8
DEFPOINTS
 62
     0
100
AcDbPoint
 10
713.7562585079994
 20
689.3052244986599
 30
-0.0000000000005428
  0
POINT
  5
11C4
330
1149
100
AcDbEntity
  8
DEFPOINTS
 62
     0
100
AcDbPoint
 10
765.2712585079998
 20
675.90522449866
 30
-0.0000000000005428
  0
POINT
  5
11C5
330
1149
100
AcDbEntity
  8
DEFPOINTS
 62
     0
100
AcDbPoint
 10
765.2712585079998
 20
714.0572858647308
 30
-0.0000000000005428
  0
ENDBLK
  5
114B
330
1149
100
AcDbEntity
  8
0
100
AcDbBlockEnd
  0
ENDSEC
  0
SECTION
  2
ENTITIES
  0
DIMENSION
  5
EA1
102
{ACAD_XDICTIONARY
360
EAE
102
}
102
{ACAD_REACTORS
330
EB8
102
}
330
1F
100
AcDbEntity
  8
0
100
AcDbDimension
  2
*D0
 10
778.2806826092645
 20
727.7738746386291
 30
-0.0000000000005428
 11
746.0184705586319
 21
730.7238746386292
 31
-0.0000000000005428
 70
    32
  1
65 Max
 71
     5
 42
64.52442410126514
  3
ISO3098B
100
AcDbAlignedDimension
 13
713.7562585079994
 23
689.3052244986599
 33
-0.0000000000005428
 14
778.2806826092645
 24
689.3052244986598
 34
-0.000000000000004
100
AcDbRotatedDimension
  0
DIMENSION
  5
ECB
102
{ACAD_XDICTIONARY
360
ED8
102
}
102
{ACAD_REACTORS
330
EE2
102
}
330
1F
100
AcDbEntity
  8
0
100
AcDbDimension
  2
*D1
 10
633.9562585079996
 20
471.0357307138362
 30
-0.0000000000005428
 11
674.7062585079996
 21
473.9857307138363
 31
-0.0000000000005428
 70
    32
  1
<> Max.
 71
     5
 42
81.5
  3
ISO3098B
100
AcDbAlignedDimension
 13
715.4562585079997
 23
499.7052244986599
 33
-0.0000000000005428
 14
633.9562585079996
 24
504.2054228105885
 34
0.0
100
AcDbRotatedDimension
  0
DIMENSION
  5
EEC
102
{ACAD_XDICTIONARY
360
EF9
102
}
102
{ACAD_REACTORS
330
F03
102
}
330
1F
100
AcDbEntity
  8
0
100
AcDbDimension
  2
*D2
 10
606.495554482655
 20
696.0052244986602
 30
-0.0000000000005428
 11
603.5455544826549
 21
594.5052244986603
 31
-0.0000000000005428
 70
    32
  1
<> O/A Nominal
 71
     5
 42
203.0000000000001
  3
ISO3098B
100
AcDbAlignedDimension
 13
644.099748676419
 23
493.0052244986601
 33
0.0
 14
720.4562585079996
 24
696.0052244986602
 34
0.0
 50
90.0
100
AcDbRotatedDimension
  0
DIMENSION
  5
F27
102
{ACAD_XDICTIONARY
360
F34
102
}
102
{ACAD_REACTORS
330
F3E
102
}
330
1F
100
AcDbEntity
  8
0
100
AcDbDimension
  2
*D3
 10
713.7562585079994
 20
531.3620756980568
 30
-0.0000000000005428
 11
679.8881215057001
 21
534.3120756980568
 31
-0.0000000000005428
 70
    32
  1
68 Min.
 71
     5
 42
67.73627400459838
  3
ISO3098B
100
AcDbAlignedDimension
 13
646.019984503401
 23
513.5769083150864
 33
-0.0000000000005428
 14
713.7562585079994
 24
522.4547103977881
 34
-0.0000000000005428
100
AcDbRotatedDimension
  0
DIMENSION
  5
F46
102
{ACAD_XDICTIONARY
360
F53
102
}
102
{ACAD_REACTORS
330
F5D
102
}
330
1F
100
AcDbEntity
  8
0
100
AcDbDimension
  2
*D4
 10
621.330630057678
 20
696.00522449866
 30
-0.0000000000005428
 11
618.3806300576779
 21
605.5577229575647
 31
-0.0000000000005428
 70
    32
  1
181 Min.
 71
     5
 42
180.8950030821906
  3
ISO3098B
100
AcDbAlignedDimension
 13
645.2858517271758
 23
515.1102214164693
 33
0.0
 14
720.4562585079996
 24
696.00522449866
 34
-0.0000000000005428
 50
90.0
100
AcDbRotatedDimension
  0
DIMENSION
  5
F5E
102
{ACAD_XDICTIONARY
360
F6B
102
}
102
{ACAD_REACTORS
330
F75
102
}
330
1F
100
AcDbEntity
  8
0
100
AcDbDimension
  2
*D5
 10
801.7942044777822
 20
674.20522449866
 30
-0.0000000000005428
 11
798.844204477782
 21
583.6052244986602
 31
-0.0000000000005428
 70
    32
  1
181 Min.
 71
     5
 42
181.2000000000001
  3
ISO3098B
100
AcDbAlignedDimension
 13
708.7562585079996
 23
493.0052244986599
 33
-0.0000000000005428
 14
769.0562585079996
 24
674.20522449866
 34
0.0
 50
90.0
100
AcDbRotatedDimension
  0
DIMENSION
  5
1148
102
{ACAD_XDICTIONARY
360
1155
102
}
102
{ACAD_REACTORS
330
115F
102
}
330
1F
100
AcDbEntity
  8
0
100
AcDbDimension
  2
*D6
 10
765.2712585079998
 20
714.0572858647308
 30
-0.0000000000005428
 11
739.5137585079996
 21
717.0072858647309
 31
-0.0000000000005428
 70
    32
  1
52 Min.
 71
     5
 42
51.51500000000044
  3
ISO3098B
100
AcDbAlignedDimension
 13
713.7562585079994
 23
689.3052244986599
 33
-0.0000000000005428
 14
765.2712585079998
 24
675.90522449866
 34
-0.0000000000005428
100
AcDbRotatedDimension
  0
LWPOLYLINE
  5
1216
102
{ACAD_REACTORS
330
115F
330
EE2
330
F03
330
F75
330
F3E
330
EB8
330
F5D
102
}
330
1F
100
AcDbEntity
  8
0
100
AcDbPolyline
 90
       62
 70
     0
 43
0.0
 10
765.2712585079999
 20
674.20522449866
 10
769.0562585079996
 20
674.20522449866
 42
0.4142135623731049
 10
778.7562585079992
 20
683.90522449866
 10
778.7562585079995
 20
686.3052244986599
 42
0.4142135623730869
 10
769.0562585079995
 20
696.00522449866
 10
720.4562585079996
 20
696.00522449866
 42
0.4142135623730951
 10
713.7562585079994
 20
689.3052244986599
 10
713.7562585079995
 20
678.2176423892224
 42
0.0851278882542906
 10
714.4248299365711
 20
674.3192345509537
 42
-0.1714985851424564
 10
714.4248299365706
 20
670.4541464377986
 42
0.0851278882542906
 10
713.7562585079994
 20
666.5557385995316
 10
713.7562585079995
 20
635.7445870183551
 42
0.0851278882542906
 10
714.4248299365711
 20
631.8461791800866
 42
-0.1714985851424564
 10
714.4248299365706
 20
627.9810910669315
 42
0.0851278882542906
 10
713.7562585079994
 20
624.0826832286646
 10
713.7562585079995
 20
564.9277657686554
 42
0.0851278882543149
 10
714.424829936571
 20
561.0293579303873
 42
-0.1714985851425073
 10
714.424829936571
 20
557.1642698172329
 42
0.0851278882543149
 10
713.7562585079995
 20
553.2658619789649
 10
713.7562585079995
 20
522.4547103977881
 42
0.0851278882543149
 10
714.424829936571
 20
518.55630255952
 42
-0.1714985851425073
 10
714.424829936571
 20
514.6912144463656
 42
0.0851278882543149
 10
713.7562585079994
 20
510.7928066080976
 10
713.7562585079996
 20
499.7052244986599
 42
-0.4142135623730951
 10
708.7562585079996
 20
494.70522449866
 10
644.099748676419
 20
494.70522449866
 42
-0.2679491924311181
 10
638.0375708499279
 20
498.2052244986599
 10
636.5940806815086
 20
500.7054228105885
 42
-0.4369694552090603
 10
639.6333588411899
 20
510.5190649927526
 10
646.0199845034011
 20
513.5769083150867
 10
645.2858517271758
 20
515.1102214164693
 10
638.8992260649647
 20
512.0523780941352
 42
0.4369694552090603
 10
635.121837495075
 20
499.8554228105886
 10
636.5653276634945
 20
497.3552244986598
 42
0.2679491924311181
 10
644.099748676419
 20
493.00522449866
 10
708.7562585079996
 20
493.00522449866
 42
0.4142135623730951
 10
715.4562585079995
 20
499.7052244986599
 10
715.4562585079995
 20
510.7928066080976
 42
-0.0851278882543149
 10
716.0276870794281
 20
514.1247791194376
 42
0.1714985851425073
 10
716.0276870794281
 20
519.122737886448
 42
-0.0851278882543149
 10
715.4562585079995
 20
522.4547103977881
 10
715.4562585079995
 20
553.2658619789649
 42
-0.0851278882543149
 10
716.0276870794281
 20
556.597834490305
 42
0.1714985851425073
 10
716.0276870794281
 20
561.5957932573153
 42
-0.0851278882543149
 10
715.4562585079995
 20
564.9277657686554
 10
715.4562585079995
 20
624.0826832286646
 42
-0.0851278882542906
 10
716.0276870794283
 20
627.4146557400055
 42
0.1714985851424564
 10
716.0276870794278
 20
632.4126145070159
 42
-0.0851278882542906
 10
715.4562585079997
 20
635.7445870183551
 10
715.4562585079995
 20
666.5557385995316
 42
-0.0851278882542906
 10
716.0276870794283
 20
669.8877111108726
 42
0.1714985851424564
 10
716.0276870794278
 20
674.8856698778832
 42
-0.0851278882542906
 10
715.4562585079995
 20
678.2176423892224
 10
715.4562585079995
 20
689.3052244986599
 42
-0.4142135623730951
 10
720.4562585079996
 20
694.3052244986599
 10
769.0562585079995
 20
694.3052244986597
 42
-0.4142135623730869
 10
777.0562585079995
 20
686.3052244986599
 10
777.0562585079996
 20
683.9052244986604
 42
-0.4142135623731049
 10
769.0562585079996
 20
675.9052244986601
 10
765.2712585079999
 20
675.90522449866
 10
765.2712585079998
 20
674.20522449866
 10
765.2712585079998
 20
675.90522449866
  0
ENDSEC
  0
SECTION
  2
OBJECTS
  0
DICTIONARY
  5
C
330
0
100
AcDbDictionary
281
     1
  3
ACAD_COLOR
350
6B
  3
ACAD_GROUP
350
D
  3
ACAD_LAYOUT
350
1A
  3
ACAD_MATERIAL
350
6A
  3
ACAD_MLEADERSTYLE
350
12D
  3
ACAD_MLINESTYLE
350
17
  3
ACAD_PLOTSETTINGS
350
19
  3
ACAD_PLOTSTYLENAME
350
E
  3
ACAD_SCALELIST
350
10C
  3
ACAD_TABLESTYLE
350
7E
  3
ACAD_VISUALSTYLE
350
EF
  3
ACDB_RECOMPOSE_DATA
350
15D
  3
AcDbVariableDictionary
350
5E
  3
DWGPROPS
350
12B9
  0
DICTIONARY
  5
1D3
330
2
100
AcDbDictionary
280
     1
281
     1
  3
ACAD_LAYERFILTERS
360
1215
  3
ACLYDICTIONARY
360
1214
  0
DICTIONARY
  5
13C
330
10
100
AcDbDictionary
280
     1
281
     1
  3
ADSK_XREC_LAYER_RECONCILED
360
1E0
  0
DICTIONARY
  5
3B0
330
1F
100
AcDbDictionary
280
     1
281
     1
  3
ACAD_SORTENTS
360
3B1
  0
DICTIONARY
  5
EAE
330
EA1
100
AcDbDictionary
280
     1
281
     1
  3
ACAD_DIMASSOC
360
EB8
  0
DICTIONARY
  5
ED8
330
ECB
100
AcDbDictionary
280
     1
281
     1
  3
ACAD_DIMASSOC
360
EE2
  0
DICTIONARY
  5
EF9
330
EEC
100
AcDbDictionary
280
     1
281
     1
  3
ACAD_DIMASSOC
360
F03
  0
DICTIONARY
  5
F34
330
F27
100
AcDbDictionary
280
     1
281
     1
  3
ACAD_DIMASSOC
360
F3E
  0
DICTIONARY
  5
F53
330
F46
100
AcDbDictionary
280
     1
281
     1
  3
ACAD_DIMASSOC
360
F5D
  0
DICTIONARY
  5
F6B
330
F5E
100
AcDbDictionary
280
     1
281
     1
  3
ACAD_DIMASSOC
360
F75
  0
DICTIONARY
  5
1155
330
1148
100
AcDbDictionary
280
     1
281
     1
  3
ACAD_DIMASSOC
360
115F
  0
DICTIONARY
  5
6B
102
{ACAD_REACTORS
330
C
102
}
330
C
100
AcDbDictionary
281
     1
  0
DICTIONARY
  5
D
102
{ACAD_REACTORS
330
C
102
}
330
C
100
AcDbDictionary
281
     1
  0
DICTIONARY
  5
1A
102
{ACAD_REACTORS
330
C
102
}
330
C
100
AcDbDictionary
281
     1
  3
Layout1
350
D3
  3
Model
350
22
  0
DICTIONARY
  5
6A
102
{ACAD_REACTORS
330
C
102
}
330
C
100
AcDbDictionary
281
     1
  3
ByBlock
350
ED
  3
ByLayer
350
EC
  3
Global
350
EE
  0
DICTIONARY
  5
12D
102
{ACAD_REACTORS
330
C
102
}
330
C
100
AcDbDictionary
281
     1
  3
Standard
350
12E
  0
DICTIONARY
  5
17
102
{ACAD_REACTORS
330
C
102
}
330
C
100
AcDbDictionary
281
     1
  3
Standard
350
18
  0
DICTIONARY
  5
19
102
{ACAD_REACTORS
330
C
102
}
330
C
100
AcDbDictionary
281
     1
  0
ACDBDICTIONARYWDFLT
  5
E
102
{ACAD_REACTORS
330
C
102
}
330
C
100
AcDbDictionary
281
     1
  3
Normal
350
F
100
AcDbDictionaryWithDefault
340
F
  0
DICTIONARY
  5
10C
102
{ACAD_REACTORS
330
C
102
}
330
C
100
AcDbDictionary
281
     1
  3
A0
350
10D
  3
A1
350
188
  3
A2
350
189
  3
A3
350
18A
  3
A4
350
18B
  3
A5
350
18C
  3
A6
350
18D
  3
A7
350
18E
  3
A8
350
18F
  3
A9
350
190
  3
B0
350
191
  3
B1
350
192
  3
B2
350
193
  3
B3
350
194
  3
B4
350
195
  3
B5
350
196
  3
B6
350
197
  3
B7
350
198
  3
B8
350
199
  3
B9
350
19A
  3
C0
350
19B
  3
C1
350
19C
  3
C2
350
19D
  3
C3
350
19E
  3
C4
350
19F
  3
C5
350
1A0
  3
C6
350
1A1
  3
C7
350
1A2
  3
C8
350
1A3
  3
C9
350
1A4
  3
D0
350
1A5
  3
D1
350
1A6
  3
D2
350
1A7
  0
DICTIONARY
  5
7E
102
{ACAD_REACTORS
330
C
102
}
330
C
100
AcDbDictionary
281
     1
  3
Standard
350
7F
  0
DICTIONARY
  5
EF
102
{ACAD_REACTORS
330
C
102
}
330
C
100
AcDbDictionary
281
     1
  3
2dWireframe
350
F5
  3
3D Hidden
350
F7
  3
3dWireframe
350
F6
  3
Basic
350
F4
  3
Brighten
350
FB
  3
ColorChange
350
FF
  3
Conceptual
350
F8
  3
Dim
350
FA
  3
Facepattern
350
FE
  3
Flat
350
F0
  3
FlatWithEdges
350
F1
  3
Gouraud
350
F2
  3
GouraudWithEdges
350
F3
  3
Linepattern
350
FD
  3
Realistic
350
F9
  3
Thicken
350
FC
  0
XRECORD
  5
15D
102
{ACAD_REACTORS
330
C
102
}
330
C
100
AcDbXrecord
280
     1
 90
        1
330
7F
  0
DICTIONARY
  5
5E
102
{ACAD_REACTORS
330
C
102
}
330
C
100
AcDbDictionary
281
     1
  3
CANNOSCALE
350
146
  3
CMLEADERSTYLE
350
145
  3
CTABLESTYLE
350
84
  3
DIMASSOC
350
5F
  3
HIDETEXT
350
63
  3
INDEXCTL
350
12B5
  3
LIGHTINGUNITS
350
12B3
  3
MSLTSCALE
350
12B2
  3
PSOLHEIGHT
350
12B7
  3
PSOLWIDTH
350
12B6
  3
SORTENTS
350
12B4
  0
XRECORD
  5
12B9
102
{ACAD_REACTORS
330
C
102
}
330
C
100
AcDbXrecord
280
     1
  1
DWGPROPS COOKIE
  2

  3

  4

  6

  7

  8
PMPAGR
  9

300
=
301
=
302
=
303
=
304
=
305
=
306
=
307
=
308
=
309
=
 40
0.1904702893518518
 41
2454571.574666042
 42
2454651.425554514
  1

 90
        0
  0
DICTIONARY
  5
1215
102
{ACAD_REACTORS
330
1D3
102
}
330
1D3
100
AcDbDictionary
281
     1
  0
DICTIONARY
  5
1214
102
{ACAD_REACTORS
330
1D3
102
}
330
1D3
100
AcDbDictionary
281
     1
1001
ACAD
1000
<All
  0
XRECORD
  5
1E0
102
{ACAD_REACTORS
330
13C
102
}
330
13C
100
AcDbXrecord
280
     1
290
     1
  0
SORTENTSTABLE
  5
3B1
102
{ACAD_REACTORS
330
3B0
102
}
330
3B0
100
AcDbSortentsTable
330
1F
331
ECB
  5
10FD
331
1216
  5
E73
331
1148
  5
1216
331
EA1
  5
10FC
331
F27
  5
10FF
331
EEC
  5
10FE
331
F5E
  5
1207
331
F46
  5
1100
  0
DIMASSOC
  5
EB8
102
{ACAD_REACTORS
330
EAE
102
}
330
EAE
100
AcDbDimAssoc
330
EA1
 90
        1
 70
     0
 71
     0
  1
AcDbOsnapPointRef
 72
     1
331
1216
 73
     2
 91
        6
 40
1.0
 10
0.0
 20
0.0
 30
2.000000000000000E+50
 75
     0
  0
DIMASSOC
  5
EE2
102
{ACAD_REACTORS
330
ED8
102
}
330
ED8
100
AcDbDimAssoc
330
ECB
 90
        1
 70
     0
 71
     0
  1
AcDbOsnapPointRef
 72
     1
331
1216
 73
     2
 91
       36
 40
6.283185307179586
 10
0.0
 20
0.0
 30
2.000000000000000E+50
 75
     0
  0
DIMASSOC
  5
F03
102
{ACAD_REACTORS
330
EF9
102
}
330
EF9
100
AcDbDimAssoc
330
EEC
 90
        3
 70
     0
 71
     0
  1
AcDbOsnapPointRef
 72
     1
331
1216
 73
     2
 91
       34
 40
1.0
 10
0.0
 20
0.0
 30
2.000000000000000E+50
 75
     0
  1
AcDbOsnapPointRef
 72
    13
331
1216
 73
     2
 91
        6
 40
0.0
 10
0.0
 20
0.0
 30
2.000000000000000E+50
 75
     0
  0
DIMASSOC
  5
F3E
102
{ACAD_REACTORS
330
F34
102
}
330
F34
100
AcDbDimAssoc
330
F27
 90
        2
 70
     0
 71
     0
  1
AcDbOsnapPointRef
 72
    13
331
1216
 73
     2
 91
       20
 40
0.0
 10
0.0
 20
0.0
 30
2.000000000000000E+50
 75
     0
  0
DIMASSOC
  5
F5D
102
{ACAD_REACTORS
330
F53
102
}
330
F53
100
AcDbDimAssoc
330
F46
 90
        2
 70
     0
 71
     0
  1
AcDbOsnapPointRef
 72
    13
331
1216
 73
     2
 91
        6
 40
1.570796326794896
 10
0.0
 20
0.0
 30
2.000000000000000E+50
 75
     0
  0
DIMASSOC
  5
F75
102
{ACAD_REACTORS
330
F6B
102
}
330
F6B
100
AcDbDimAssoc
330
F5E
 90
        1
 70
     0
 71
     0
  1
AcDbOsnapPointRef
 72
    13
331
1216
 73
     2
 91
       36
 40
0.0
 10
0.0
 20
0.0
 30
2.000000000000000E+50
 75
     0
  0
DIMASSOC
  5
115F
102
{ACAD_REACTORS
330
1155
102
}
330
1155
100
AcDbDimAssoc
330
1148
 90
        2
 70
     0
 71
     0
  1
AcDbOsnapPointRef
 72
    13
331
1216
 73
     2
 91
       60
 40
0.0
 10
0.0
 20
0.0
 30
2.000000000000000E+50
 75
     0
  0
LAYOUT
  5
D3
102
{ACAD_XDICTIONARY
360
12BD
102
}
102
{ACAD_REACTORS
330
1A
102
}
330
1A
100
AcDbPlotSettings
  1

  2
C:\Documents and Settings\basas\Application Data\Autodesk\AutoCAD 2005\R16.1\enu\plotters\Default Windows System Printer.pc3
  4

  6

 40
0.0
 41
0.0
 42
0.0
 43
0.0
 44
0.0
 45
0.0
 46
0.0
 47
0.0
 48
0.0
 49
0.0
140
0.0
141
0.0
142
1.0
143
1.0
 70
   688
 72
     0
 73
     0
 74
     5
  7

 75
    16
147
1.0
148
0.0
149
0.0
100
AcDbLayout
  1
Layout1
 70
     1
 71
     1
 10
0.0
 20
0.0
 11
12.0
 21
9.0
 12
0.0
 22
0.0
 32
0.0
 14
0.0
 24
0.0
 34
0.0
 15
0.0
 25
0.0
 35
0.0
146
0.0
 13
0.0
 23
0.0
 33
0.0
 16
1.0
 26
0.0
 36
0.0
 17
0.0
 27
1.0
 37
0.0
 76
     0
330
D2
  0
LAYOUT
  5
22
102
{ACAD_XDICTIONARY
360
12BA
102
}
102
{ACAD_REACTORS
330
1A
102
}
330
1A
100
AcDbPlotSettings
  1

  2
none_device
  4
ISO_A4_(210.00_x_297.00_MM)
  6

 40
7.5
 41
20.0
 42
7.5
 43
20.0
 44
210.0
 45
297.0
 46
11.54999923706054
 47
-13.65000009536743
 48
0.0
 49
0.0
140
0.0
141
0.0
142
1.0
143
8.704084754739808
 70
 11952
 72
     1
 73
     0
 74
     0
  7

 75
     0
147
0.1148885871608098
148
0.0
149
0.0
100
AcDbLayout
  1
Model
 70
     1
 71
     0
 10
0.0
 20
0.0
 11
12.0
 21
9.0
 12
0.0
 22
0.0
 32
0.0
 14
0.0
 24
0.0
 34
0.0
 15
0.0
 25
0.0
 35
0.0
146
0.0
 13
0.0
 23
0.0
 33
0.0
 16
1.0
 26
0.0
 36
0.0
 17
0.0
 27
1.0
 37
0.0
 76
     0
330
1F
331
EA
1001
ACAD_PSEXT
1000
None
1000
None
1000
Not applicable
1000
The layout will not be plotted unless a new plotter configuration name is selected.
1070
     0
  0
MATERIAL
  5
ED
102
{ACAD_XDICTIONARY
360
12C1
102
}
102
{ACAD_REACTORS
330
6A
102
}
330
6A
100
AcDbMaterial
  1
ByBlock
  0
MATERIAL
  5
EC
102
{ACAD_XDICTIONARY
360
12BF
102
}
102
{ACAD_REACTORS
330
6A
102
}
330
6A
100
AcDbMaterial
  1
ByLayer
  0
MATERIAL
  5
EE
102
{ACAD_XDICTIONARY
360
173
102
}
102
{ACAD_REACTORS
330
6A
102
}
330
6A
100
AcDbMaterial
  1
Global
 43
0.0007999999797903
 43
0.0
 43
0.0
 43
0.0
 43
0.0
 43
0.0007999999797903
 43
0.0
 43
0.0
 43
0.0
 43
0.0
 43
1.0
 43
0.0
 43
0.0
 43
0.0
 43
0.0
 43
1.0
 49
0.0007999999797903
 49
0.0
 49
0.0
 49
0.0
 49
0.0
 49
0.0007999999797903
 49
0.0
 49
0.0
 49
0.0
 49
0.0
 49
1.0
 49
0.0
 49
0.0
 49
0.0
 49
0.0
 49
1.0
142
0.0007999999797903
142
0.0
142
0.0
142
0.0
142
0.0
142
0.0007999999797903
142
0.0
142
0.0
142
0.0
142
0.0
142
1.0
142
0.0
142
0.0
142
0.0
142
0.0
142
1.0
144
0.0007999999797903
144
0.0
144
0.0
144
0.0
144
0.0
144
0.0007999999797903
144
0.0
144
0.0
144
0.0
144
0.0
144
1.0
144
0.0
144
0.0
144
0.0
144
0.0
144
1.0
1001
ACAD
1070
    -1
1070
     3
1070
     0
1000

1071
        0
1070
     0
  0
MLEADERSTYLE
  5
12E
102
{ACAD_REACTORS
330
12D
102
}
330
12D
100
AcDbMLeaderStyle
170
     2
171
     1
172
     0
 90
        2
 40
0.0
 41
0.0
173
     1
 91
-1056964608
340
14
 92
       -2
290
     1
 42
2.0
291
     1
 43
8.0
  3
Standard
 44
4.0
300

342
11
174
     1
178
     1
175
     1
176
     0
 93
-1056964608
 45
4.0
292
     0
297
     0
 46
4.0
 94
-1056964608
 47
1.0
 49
1.0
140
1.0
293
     1
141
0.0
294
     1
177
     0
142
1.0
295
     0
296
     0
143
3.75
1001
ACAD_MLEADERVER
1070
     2
  0
MLINESTYLE
  5
18
102
{ACAD_REACTORS
330
17
102
}
330
17
100
AcDbMlineStyle
  2
STANDARD
 70
     0
  3

 62
   256
 51
90.0
 52
90.0
 71
     2
 49
0.5
 62
   256
  6
BYLAYER
 49
-0.5
 62
   256
  6
BYLAYER
  0
ACDBPLACEHOLDER
  5
F
102
{ACAD_REACTORS
330
E
102
}
330
E
  0
SCALE
  5
10D
102
{ACAD_REACTORS
330
10C
102
}
330
10C
100
AcDbScale
 70
     0
300
1:1
140
1.0
141
1.0
290
     1
  0
SCALE
  5
188
102
{ACAD_REACTORS
330
10C
102
}
330
10C
100
AcDbScale
 70
     0
300
1:2
140
1.0
141
2.0
290
     0
  0
SCALE
  5
189
102
{ACAD_REACTORS
330
10C
102
}
330
10C
100
AcDbScale
 70
     0
300
1:4
140
1.0
141
4.0
290
     0
  0
SCALE
  5
18A
102
{ACAD_REACTORS
330
10C
102
}
330
10C
100
AcDbScale
 70
     0
300
1:5
140
1.0
141
5.0
290
     0
  0
SCALE
  5
18B
102
{ACAD_REACTORS
330
10C
102
}
330
10C
100
AcDbScale
 70
     0
300
1:8
140
1.0
141
8.0
290
     0
  0
SCALE
  5
18C
102
{ACAD_REACTORS
330
10C
102
}
330
10C
100
AcDbScale
 70
     0
300
1:10
140
1.0
141
10.0
290
     0
  0
SCALE
  5
18D
102
{ACAD_REACTORS
330
10C
102
}
330
10C
100
AcDbScale
 70
     0
300
1:16
140
1.0
141
16.0
290
     0
  0
SCALE
  5
18E
102
{ACAD_REACTORS
330
10C
102
}
330
10C
100
AcDbScale
 70
     0
300
1:20
140
1.0
141
20.0
290
     0
  0
SCALE
  5
18F
102
{ACAD_REACTORS
330
10C
102
}
330
10C
100
AcDbScale
 70
     0
300
1:30
140
1.0
141
30.0
290
     0
  0
SCALE
  5
190
102
{ACAD_REACTORS
330
10C
102
}
330
10C
100
AcDbScale
 70
     0
300
1:40
140
1.0
141
40.0
290
     0
  0
SCALE
  5
191
102
{ACAD_REACTORS
330
10C
102
}
330
10C
100
AcDbScale
 70
     0
300
1:50
140
1.0
141
50.0
290
     0
  0
SCALE
  5
192
102
{ACAD_REACTORS
330
10C
102
}
330
10C
100
AcDbScale
 70
     0
300
1:100
140
1.0
141
100.0
290
     0
  0
SCALE
  5
193
102
{ACAD_REACTORS
330
10C
102
}
330
10C
100
AcDbScale
 70
     0
300
2:1
140
2.0
141
1.0
290
     0
  0
SCALE
  5
194
102
{ACAD_REACTORS
330
10C
102
}
330
10C
100
AcDbScale
 70
     0
300
4:1
140
4.0
141
1.0
290
     0
  0
SCALE
  5
195
102
{ACAD_REACTORS
330
10C
102
}
330
10C
100
AcDbScale
 70
     0
300
8:1
140
8.0
141
1.0
290
     0
  0
SCALE
  5
196
102
{ACAD_REACTORS
330
10C
102
}
330
10C
100
AcDbScale
 70
     0
300
10:1
140
10.0
141
1.0
290
     0
  0
SCALE
  5
197
102
{ACAD_REACTORS
330
10C
102
}
330
10C
100
AcDbScale
 70
     0
300
100:1
140
100.0
141
1.0
290
     0
  0
SCALE
  5
198
102
{ACAD_REACTORS
330
10C
102
}
330
10C
100
AcDbScale
 70
     0
300
1/128" = 1'-0"
140
0.0078125
141
12.0
290
     0
  0
SCALE
  5
199
102
{ACAD_REACTORS
330
10C
102
}
330
10C
100
AcDbScale
 70
     0
300
1/64" = 1'-0"
140
0.015625
141
12.0
290
     0
  0
SCALE
  5
19A
102
{ACAD_REACTORS
330
10C
102
}
330
10C
100
AcDbScale
 70
     0
300
1/32" = 1'-0"
140
0.03125
141
12.0
290
     0
  0
SCALE
  5
19B
102
{ACAD_REACTORS
330
10C
102
}
330
10C
100
AcDbScale
 70
     0
300
1/16" = 1'-0"
140
0.0625
141
12.0
290
     0
  0
SCALE
  5
19C
102
{ACAD_REACTORS
330
10C
102
}
330
10C
100
AcDbScale
 70
     0
300
3/32" = 1'-0"
140
0.09375
141
12.0
290
     0
  0
SCALE
  5
19D
102
{ACAD_REACTORS
330
10C
102
}
330
10C
100
AcDbScale
 70
     0
300
1/8" = 1'-0"
140
0.125
141
12.0
290
     0
  0
SCALE
  5
19E
102
{ACAD_REACTORS
330
10C
102
}
330
10C
100
AcDbScale
 70
     0
300
3/16" = 1'-0"
140
0.1875
141
12.0
290
     0
  0
SCALE
  5
19F
102
{ACAD_REACTORS
330
10C
102
}
330
10C
100
AcDbScale
 70
     0
300
1/4" = 1'-0"
140
0.25
141
12.0
290
     0
  0
SCALE
  5
1A0
102
{ACAD_REACTORS
330
10C
102
}
330
10C
100
AcDbScale
 70
     0
300
3/8" = 1'-0"
140
0.375
141
12.0
290
     0
  0
SCALE
  5
1A1
102
{ACAD_REACTORS
330
10C
102
}
330
10C
100
AcDbScale
 70
     0
300
1/2" = 1'-0"
140
0.5
141
12.0
290
     0
  0
SCALE
  5
1A2
102
{ACAD_REACTORS
330
10C
102
}
330
10C
100
AcDbScale
 70
     0
300
3/4" = 1'-0"
140
0.75
141
12.0
290
     0
  0
SCALE
  5
1A3
102
{ACAD_REACTORS
330
10C
102
}
330
10C
100
AcDbScale
 70
     0
300
1" = 1'-0"
140
1.0
141
12.0
290
     0
  0
SCALE
  5
1A4
102
{ACAD_REACTORS
330
10C
102
}
330
10C
100
AcDbScale
 70
     0
300
1-1/2" = 1'-0"
140
1.5
141
12.0
290
     0
  0
SCALE
  5
1A5
102
{ACAD_REACTORS
330
10C
102
}
330
10C
100
AcDbScale
 70
     0
300
3" = 1'-0"
140
3.0
141
12.0
290
     0
  0
SCALE
  5
1A6
102
{ACAD_REACTORS
330
10C
102
}
330
10C
100
AcDbScale
 70
     0
300
6" = 1'-0"
140
6.0
141
12.0
290
     0
  0
SCALE
  5
1A7
102
{ACAD_REACTORS
330
10C
102
}
330
10C
100
AcDbScale
 70
     0
300
1'-0" = 1'-0"
140
12.0
141
12.0
290
     0
  0
TABLESTYLE
  5
7F
102
{ACAD_XDICTIONARY
360
162
102
}
102
{ACAD_REACTORS
330
7E
102
}
330
7E
100
AcDbTableStyle
  3
Standard
 70
     0
 71
     0
 40
1.5
 41
1.5
280
     0
281
     0
  7
Standard
140
4.5
170
     2
 62
     0
 63
     7
283
     0
274
    -2
284
     1
 64
     0
275
    -2
285
     1
 65
     0
276
    -2
286
     1
 66
     0
277
    -2
287
     1
 67
     0
278
    -2
288
     1
 68
     0
279
    -2
289
     1
 69
     0
  7
Standard
140
6.0
170
     5
 62
     0
 63
     7
283
     0
274
    -2
284
     1
 64
     0
275
    -2
285
     1
 65
     0
276
    -2
286
     1
 66
     0
277
    -2
287
     1
 67
     0
278
    -2
288
     1
 68
     0
279
    -2
289
     1
 69
     0
  7
Standard
140
4.5
170
     5
 62
     0
 63
     7
283
     0
274
    -2
284
     1
 64
     0
275
    -2
285
     1
 65
     0
276
    -2
286
     1
 66
     0
277
    -2
287
     1
 67
     0
278
    -2
288
     1
 68
     0
279
    -2
289
     1
 69
     0
  0
VISUALSTYLE
  5
F5
102
{ACAD_REACTORS
330
EF
102
}
330
EF
100
AcDbVisualStyle
  2
2dWireframe
 70
     4
 71
     0
 72
     2
 73
     1
 90
        0
 40
-0.6
 41
-30.0
 62
     5
 63
     7
 74
     1
 91
        4
 64
     7
 65
   257
 75
     1
175
     1
 42
1.0
 92
        0
 66
   257
 43
1.0
 76
     1
 77
     6
 78
     2
 67
     7
 79
     5
170
     0
171
     0
290
     0
174
     0
 93
        1
 44
0.0
173
     0
291
     0
 45
0.0
1001
ACAD
1000
AcDbSavedByObjectVersion
1070
     0
  0
VISUALSTYLE
  5
F7
102
{ACAD_REACTORS
330
EF
102
}
330
EF
100
AcDbVisualStyle
  2
3D Hidden
 70
     6
 71
     1
 72
     2
 73
     2
 90
        0
 40
-0.6
 41
-30.0
 62
     5
 63
     7
 74
     2
 91
        2
 64
     7
 65
   257
 75
     2
175
     1
 42
40.0
 92
        0
 66
   257
 43
1.0
 76
     1
 77
     6
 78
     2
 67
     7
 79
     3
170
     0
171
     0
290
     0
174
     0
 93
        1
 44
0.0
173
     0
291
     0
 45
0.0
1001
ACAD
1000
AcDbSavedByObjectVersion
1070
     0
  0
VISUALSTYLE
  5
F6
102
{ACAD_REACTORS
330
EF
102
}
330
EF
100
AcDbVisualStyle
  2
3dWireframe
 70
     5
 71
     0
 72
     2
 73
     1
 90
        0
 40
-0.6
 41
-30.0
 62
     5
 63
     7
 74
     1
 91
        4
 64
     7
 65
   257
 75
     1
175
     1
 42
1.0
 92
        0
 66
   257
 43
1.0
 76
     1
 77
     6
 78
     2
 67
     7
 79
     5
170
     0
171
     0
290
     0
174
     0
 93
        1
 44
0.0
173
     0
291
     0
 45
0.0
1001
ACAD
1000
AcDbSavedByObjectVersion
1070
     0
  0
VISUALSTYLE
  5
F4
102
{ACAD_REACTORS
330
EF
102
}
330
EF
100
AcDbVisualStyle
  2
Basic
 70
     7
 71
     1
 72
     0
 73
     1
 90
        0
 40
-0.6
 41
-30.0
 62
     5
 63
     7
 74
     0
 91
        4
 64
     7
 65
   257
 75
     1
175
     1
 42
1.0
 92
        8
 66
     7
 43
1.0
 76
     1
 77
     6
 78
     2
 67
     7
 79
     5
170
     0
171
     0
290
     0
174
     0
 93
        1
 44
0.0
173
     0
291
     1
 45
0.0
1001
ACAD
1000
AcDbSavedByObjectVersion
1070
     0
  0
VISUALSTYLE
  5
FB
102
{ACAD_REACTORS
330
EF
102
}
330
EF
100
AcDbVisualStyle
  2
Brighten
 70
    12
 71
     2
 72
     2
 73
     1
 90
        0
 40
-0.6
 41
-30.0
 62
     5
 63
     7
 74
     1
 91
        4
 64
     7
 65
   257
 75
     1
175
     1
 42
1.0
 92
        8
 66
     7
 43
1.0
 76
     1
 77
     6
 78
     2
 67
     7
 79
     5
170
     0
171
     0
290
     0
174
     0
 93
        1
 44
50.0
173
     0
291
     1
 45
0.0
1001
ACAD
1000
AcDbSavedByObjectVersion
1070
     0
  0
VISUALSTYLE
  5
FF
102
{ACAD_REACTORS
330
EF
102
}
330
EF
100
AcDbVisualStyle
  2
ColorChange
 70
    16
 71
     2
 72
     2
 73
     3
 90
        0
 40
-0.6
 41
-30.0
 62
     5
 63
     8
 74
     1
 91
        4
 64
     7
 65
   257
 75
     1
175
     1
 42
1.0
 92
        8
 66
     8
 43
1.0
 76
     1
 77
     6
 78
     2
 67
     7
 79
     5
170
     0
171
     0
290
     0
174
     0
 93
        1
 44
0.0
173
     0
291
     1
 45
0.0
1001
ACAD
1000
AcDbSavedByObjectVersion
1070
     0
  0
VISUALSTYLE
  5
F8
102
{ACAD_REACTORS
330
EF
102
}
330
EF
100
AcDbVisualStyle
  2
Conceptual
 70
     9
 71
     3
 72
     2
 73
     1
 90
        0
 40
-0.6
 41
-30.0
 62
     5
 63
     7
 74
     2
 91
        2
 64
     7
 65
   257
 75
     1
175
     1
 42
40.0
 92
        8
 66
     7
 43
1.0
 76
     1
 77
     6
 78
     2
 67
     7
 79
     3
170
     0
171
     0
290
     0
174
     0
 93
        1
 44
0.0
173
     0
291
     0
 45
0.0
1001
ACAD
1000
AcDbSavedByObjectVersion
1070
     0
  0
VISUALSTYLE
  5
FA
102
{ACAD_REACTORS
330
EF
102
}
330
EF
100
AcDbVisualStyle
  2
Dim
 70
    11
 71
     2
 72
     2
 73
     1
 90
        0
 40
-0.6
 41
-30.0
 62
     5
 63
     7
 74
     1
 91
        4
 64
     7
 65
   257
 75
     1
175
     1
 42
1.0
 92
        8
 66
     7
 43
1.0
 76
     1
 77
     6
 78
     2
 67
     7
 79
     5
170
     0
171
     0
290
     0
174
     0
 93
        1
 44
-50.0
173
     0
291
     1
 45
0.0
1001
ACAD
1000
AcDbSavedByObjectVersion
1070
     0
  0
VISUALSTYLE
  5
FE
102
{ACAD_REACTORS
330
EF
102
}
330
EF
100
AcDbVisualStyle
  2
Facepattern
 70
    15
 71
     2
 72
     2
 73
     1
 90
        0
 40
-0.6
 41
-30.0
 62
     5
 63
     7
 74
     1
 91
        4
 64
     7
 65
   257
 75
     1
175
     1
 42
1.0
 92
        8
 66
     7
 43
1.0
 76
     1
 77
     6
 78
     2
 67
     7
 79
     5
170
     0
171
     0
290
     0
174
     0
 93
        1
 44
0.0
173
     0
291
     1
 45
0.0
1001
ACAD
1000
AcDbSavedByObjectVersion
1070
     0
  0
VISUALSTYLE
  5
F0
102
{ACAD_REACTORS
330
EF
102
}
330
EF
100
AcDbVisualStyle
  2
Flat
 70
     0
 71
     2
 72
     1
 73
     1
 90
        2
 40
-0.6
 41
30.0
 62
     5
 63
     7
 74
     0
 91
        4
 64
     7
 65
   257
 75
     1
175
     1
 42
1.0
 92
        8
 66
     7
 43
1.0
 76
     1
 77
     6
 78
     2
 67
     7
 79
     5
170
     0
171
     0
290
     0
174
     0
 93
        1
 44
0.0
173
     0
291
     1
 45
0.0
1001
ACAD
1000
AcDbSavedByObjectVersion
1070
     0
  0
VISUALSTYLE
  5
F1
102
{ACAD_REACTORS
330
EF
102
}
330
EF
100
AcDbVisualStyle
  2
FlatWithEdges
 70
     1
 71
     2
 72
     1
 73
     1
 90
        2
 40
-0.6
 41
30.0
 62
     5
 63
     7
 74
     1
 91
        4
 64
     7
 65
   257
 75
     1
175
     1
 42
1.0
 92
        0
 66
   257
 43
1.0
 76
     1
 77
     6
 78
     2
 67
     7
 79
     5
170
     0
171
     0
290
     0
174
     0
 93
        1
 44
0.0
173
     0
291
     1
 45
0.0
1001
ACAD
1000
AcDbSavedByObjectVersion
1070
     0
  0
VISUALSTYLE
  5
F2
102
{ACAD_REACTORS
330
EF
102
}
330
EF
100
AcDbVisualStyle
  2
Gouraud
 70
     2
 71
     2
 72
     2
 73
     1
 90
        2
 40
-0.6
 41
30.0
 62
     5
 63
     7
 74
     0
 91
        4
 64
     7
 65
   257
 75
     1
175
     1
 42
1.0
 92
        0
 66
     7
 43
1.0
 76
     1
 77
     6
 78
     2
 67
     7
 79
     5
170
     0
171
     0
290
     0
174
     0
 93
        1
 44
0.0
173
     0
291
     1
 45
0.0
1001
ACAD
1000
AcDbSavedByObjectVersion
1070
     0
  0
VISUALSTYLE
  5
F3
102
{ACAD_REACTORS
330
EF
102
}
330
EF
100
AcDbVisualStyle
  2
GouraudWithEdges
 70
     3
 71
     2
 72
     2
 73
     1
 90
        2
 40
-0.6
 41
30.0
 62
     5
 63
     7
 74
     1
 91
        4
 64
     7
 65
   257
 75
     1
175
     1
 42
1.0
 92
        0
 66
   257
 43
1.0
 76
     1
 77
     6
 78
     2
 67
     7
 79
     5
170
     0
171
     0
290
     0
174
     0
 93
        1
 44
0.0
173
     0
291
     1
 45
0.0
1001
ACAD
1000
AcDbSavedByObjectVersion
1070
     0
  0
VISUALSTYLE
  5
FD
102
{ACAD_REACTORS
330
EF
102
}
330
EF
100
AcDbVisualStyle
  2
Linepattern
 70
    14
 71
     2
 72
     2
 73
     1
 90
        0
 40
-0.6
 41
-30.0
 62
     5
 63
     7
 74
     1
 91
        4
 64
     7
 65
   257
 75
     7
175
     7
 42
1.0
 92
        8
 66
     7
 43
1.0
 76
     1
 77
     6
 78
     2
 67
     7
 79
     5
170
     0
171
     0
290
     0
174
     0
 93
        1
 44
0.0
173
     0
291
     1
 45
0.0
1001
ACAD
1000
AcDbSavedByObjectVersion
1070
     0
  0
VISUALSTYLE
  5
F9
102
{ACAD_REACTORS
330
EF
102
}
330
EF
100
AcDbVisualStyle
  2
Realistic
 70
     8
 71
     2
 72
     2
 73
     1
 90
        0
 40
-0.6
 41
-30.0
 62
     5
 63
     7
 74
     1
 91
        0
 64
     7
 65
   257
 75
     1
175
     1
 42
1.0
 92
        8
 66
     8
 43
1.0
 76
     1
 77
     6
 78
     2
 67
     7
 79
     5
170
     0
171
     0
290
     0
174
     0
 93
       13
 44
0.0
173
     0
291
     0
 45
0.0
1001
ACAD
1000
AcDbSavedByObjectVersion
1070
     0
  0
VISUALSTYLE
  5
FC
102
{ACAD_REACTORS
330
EF
102
}
330
EF
100
AcDbVisualStyle
  2
Thicken
 70
    13
 71
     2
 72
     2
 73
     1
 90
        0
 40
-0.6
 41
-30.0
 62
     5
 63
     7
 74
     1
 91
        4
 64
     7
 65
   257
 75
     1
175
     1
 42
1.0
 92
       12
 66
     7
 43
1.0
 76
     1
 77
     6
 78
     2
 67
     7
 79
     5
170
     0
171
     0
290
     0
174
     0
 93
        1
 44
0.0
173
     0
291
     1
 45
0.0
1001
ACAD
1000
AcDbSavedByObjectVersion
1070
     0
  0
DICTIONARYVAR
  5
146
102
{ACAD_REACTORS
330
5E
102
}
330
5E
100
DictionaryVariables
280
     0
  1
1:1
  0
DICTIONARYVAR
  5
145
102
{ACAD_REACTORS
330
5E
102
}
330
5E
100
DictionaryVariables
280
     0
  1
STANDARD
  0
DICTIONARYVAR
  5
84
102
{ACAD_REACTORS
330
5E
102
}
330
5E
100
DictionaryVariables
280
     0
  1
STANDARD
  0
DICTIONARYVAR
  5
5F
102
{ACAD_REACTORS
330
5E
102
}
330
5E
100
DictionaryVariables
280
     0
  1
2
  0
DICTIONARYVAR
  5
63
102
{ACAD_REACTORS
330
5E
102
}
330
5E
100
DictionaryVariables
280
     0
  1
1
  0
DICTIONARYVAR
  5
12B5
102
{ACAD_REACTORS
330
5E
102
}
330
5E
100
DictionaryVariables
280
     0
  1
0
  0
DICTIONARYVAR
  5
12B3
102
{ACAD_REACTORS
330
5E
102
}
330
5E
100
DictionaryVariables
280
     0
  1
2
  0
DICTIONARYVAR
  5
12B2
102
{ACAD_REACTORS
330
5E
102
}
330
5E
100
DictionaryVariables
280
     0
  1
1
  0
DICTIONARYVAR
  5
12B7
102
{ACAD_REACTORS
330
5E
102
}
330
5E
100
DictionaryVariables
280
     0
  1
80.000000
  0
DICTIONARYVAR
  5
12B6
102
{ACAD_REACTORS
330
5E
102
}
330
5E
100
DictionaryVariables
280
     0
  1
5.000000
  0
DICTIONARYVAR
  5
12B4
102
{ACAD_REACTORS
330
5E
102
}
330
5E
100
DictionaryVariables
280
     0
  1
127
  0
DICTIONARY
  5
12BD
330
D3
100
AcDbDictionary
280
     1
281
     1
  3
ACAD_XREC_ROUNDTRIP
360
12BE
  0
DICTIONARY
  5
12BA
330
22
100
AcDbDictionary
280
     1
281
     1
  3
ACAD_XREC_ROUNDTRIP
360
12BB
  0
DICTIONARY
  5
12C1
330
ED
100
AcDbDictionary
280
     1
281
     1
  3
ACAD_XREC_ROUNDTRIP
360
12C2
  0
DICTIONARY
  5
12BF
330
EC
100
AcDbDictionary
280
     1
281
     1
  3
ACAD_XREC_ROUNDTRIP
360
12C0
  0
DICTIONARY
  5
173
330
EE
100
AcDbDictionary
280
     1
281
     1
  3
ACAD_XREC_ROUNDTRIP
360
12C3
  3
BUMPTILE
360
175
  3
DIFFUSETILE
360
174
  3
OPACITYTILE
360
176
  3
REFLECTIONTILE
360
177
  0
DICTIONARY
  5
162
330
7F
100
AcDbDictionary
280
     1
281
     1
  3
ACAD_ROUNDTRIP_2008_TABLESTYLE_CELLSTYLEMAP
360
12B8
  3
ACAD_XREC_ROUNDTRIP
360
12BC
  0
XRECORD
  5
12BE
102
{ACAD_REACTORS
330
12BD
102
}
330
12BD
100
AcDbXrecord
280
     1
102
SHADEPLOT
 70
     0
102
SHADEPLOTRESLEVEL
 70
     2
102
SHADEPLOTCUSTOMDPI
 70
   300
  0
XRECORD
  5
12BB
102
{ACAD_REACTORS
330
12BA
102
}
330
12BA
100
AcDbXrecord
280
     1
102
SHADEPLOT
 70
     0
102
SHADEPLOTRESLEVEL
 70
     2
102
SHADEPLOTCUSTOMDPI
 70
   300
  0
XRECORD
  5
12C2
102
{ACAD_REACTORS
330
12C1
102
}
330
12C1
100
AcDbXrecord
280
     1
102
MATERIAL
148
0.0
149
0.0
149
0.0
 93
        0
 94
       63
282
     0
 72
     1
 77
     1
171
     1
175
     1
179
     1
273
     0
  0
XRECORD
  5
12C0
102
{ACAD_REACTORS
330
12BF
102
}
330
12BF
100
AcDbXrecord
280
     1
102
MATERIAL
148
0.0
149
0.0
149
0.0
 93
        0
 94
       63
282
     0
 72
     1
 77
     1
171
     1
175
     1
179
     1
273
     0
  0
XRECORD
  5
12C3
102
{ACAD_REACTORS
330
173
102
}
330
173
100
AcDbXrecord
280
     1
102
MATERIAL
148
0.0
149
0.0
149
0.0
 93
        0
 94
       63
282
     0
 72
     1
 77
     1
171
     1
175
     1
179
     1
273
     0
  0
XRECORD
  5
175
102
{ACAD_REACTORS
330
173
102
}
330
173
100
AcDbXrecord
280
     1
270
     1
271
     1
  0
XRECORD
  5
174
102
{ACAD_REACTORS
330
173
102
}
330
173
100
AcDbXrecord
280
     1
270
     1
271
     1
  0
XRECORD
  5
176
102
{ACAD_REACTORS
330
173
102
}
330
173
100
AcDbXrecord
280
     1
270
     1
271
     1
  0
XRECORD
  5
177
102
{ACAD_REACTORS
330
173
102
}
330
173
100
AcDbXrecord
280
     1
270
     1
271
     1
  0
CELLSTYLEMAP
  5
12B8
102
{ACAD_REACTORS
330
162
102
}
330
162
100
AcDbCellStyleMap
 90
        3
300
CELLSTYLE
  1
TABLEFORMAT_BEGIN
 90
        5
170
     1
 91
        0
 92
    32768
 62
   257
 93
        1
300
CONTENTFORMAT
  1
CONTENTFORMAT_BEGIN
 90
        0
 91
        0
 92
      512
 93
        0
300

 40
0.0
140
1.0
 94
        5
 62
     0
340
11
144
6.0
309
CONTENTFORMAT_END
171
     1
301
MARGIN
  1
CELLMARGIN_BEGIN
 40
1.5
 40
1.5
 40
1.5
 40
1.5
 40
4.5
 40
4.5
309
CELLMARGIN_END
 94
        6
 95
        1
302
GRIDFORMAT
  1
GRIDFORMAT_BEGIN
 90
        0
 91
        1
 62
     0
 92
       -2
340
14
 93
        0
 40
1.125
309
GRIDFORMAT_END
 95
        2
302
GRIDFORMAT
  1
GRIDFORMAT_BEGIN
 90
        0
 91
        1
 62
     0
 92
       -2
340
14
 93
        0
 40
1.125
309
GRIDFORMAT_END
 95
        4
302
GRIDFORMAT
  1
GRIDFORMAT_BEGIN
 90
        0
 91
        1
 62
     0
 92
       -2
340
14
 93
        0
 40
1.125
309
GRIDFORMAT_END
 95
        8
302
GRIDFORMAT
  1
GRIDFORMAT_BEGIN
 90
        0
 91
        1
 62
     0
 92
       -2
340
14
 93
        0
 40
1.125
309
GRIDFORMAT_END
 95
       16
302
GRIDFORMAT
  1
GRIDFORMAT_BEGIN
 90
        0
 91
        1
 62
     0
 92
       -2
340
14
 93
        0
 40
1.125
309
GRIDFORMAT_END
 95
       32
302
GRIDFORMAT
  1
GRIDFORMAT_BEGIN
 90
        0
 91
        1
 62
     0
 92
       -2
340
14
 93
        0
 40
1.125
309
GRIDFORMAT_END
309
TABLEFORMAT_END
  1
CELLSTYLE_BEGIN
 90
        1
 91
        1
300
_TITLE
309
CELLSTYLE_END
300
CELLSTYLE
  1
TABLEFORMAT_BEGIN
 90
        5
170
     1
 91
        0
 92
        0
 62
   257
 93
        1
300
CONTENTFORMAT
  1
CONTENTFORMAT_BEGIN
 90
        0
 91
        0
 92
      512
 93
        0
300

 40
0.0
140
1.0
 94
        5
 62
     0
340
11
144
4.5
309
CONTENTFORMAT_END
171
     1
301
MARGIN
  1
CELLMARGIN_BEGIN
 40
1.5
 40
1.5
 40
1.5
 40
1.5
 40
4.5
 40
4.5
309
CELLMARGIN_END
 94
        6
 95
        1
302
GRIDFORMAT
  1
GRIDFORMAT_BEGIN
 90
        0
 91
        1
 62
     0
 92
       -2
340
14
 93
        0
 40
1.125
309
GRIDFORMAT_END
 95
        2
302
GRIDFORMAT
  1
GRIDFORMAT_BEGIN
 90
        0
 91
        1
 62
     0
 92
       -2
340
14
 93
        0
 40
1.125
309
GRIDFORMAT_END
 95
        4
302
GRIDFORMAT
  1
GRIDFORMAT_BEGIN
 90
        0
 91
        1
 62
     0
 92
       -2
340
14
 93
        0
 40
1.125
309
GRIDFORMAT_END
 95
        8
302
GRIDFORMAT
  1
GRIDFORMAT_BEGIN
 90
        0
 91
        1
 62
     0
 92
       -2
340
14
 93
        0
 40
1.125
309
GRIDFORMAT_END
 95
       16
302
GRIDFORMAT
  1
GRIDFORMAT_BEGIN
 90
        0
 91
        1
 62
     0
 92
       -2
340
14
 93
        0
 40
1.125
309
GRIDFORMAT_END
 95
       32
302
GRIDFORMAT
  1
GRIDFORMAT_BEGIN
 90
        0
 91
        1
 62
     0
 92
       -2
340
14
 93
        0
 40
1.125
309
GRIDFORMAT_END
309
TABLEFORMAT_END
  1
CELLSTYLE_BEGIN
 90
        2
 91
        1
300
_HEADER
309
CELLSTYLE_END
300
CELLSTYLE
  1
TABLEFORMAT_BEGIN
 90
        5
170
     1
 91
        0
 92
        0
 62
   257
 93
        1
300
CONTENTFORMAT
  1
CONTENTFORMAT_BEGIN
 90
        0
 91
        0
 92
      512
 93
        0
300

 40
0.0
140
1.0
 94
        2
 62
     0
340
11
144
4.5
309
CONTENTFORMAT_END
171
     1
301
MARGIN
  1
CELLMARGIN_BEGIN
 40
1.5
 40
1.5
 40
1.5
 40
1.5
 40
4.5
 40
4.5
309
CELLMARGIN_END
 94
        6
 95
        1
302
GRIDFORMAT
  1
GRIDFORMAT_BEGIN
 90
        0
 91
        1
 62
     0
 92
       -2
340
14
 93
        0
 40
1.125
309
GRIDFORMAT_END
 95
        2
302
GRIDFORMAT
  1
GRIDFORMAT_BEGIN
 90
        0
 91
        1
 62
     0
 92
       -2
340
14
 93
        0
 40
1.125
309
GRIDFORMAT_END
 95
        4
302
GRIDFORMAT
  1
GRIDFORMAT_BEGIN
 90
        0
 91
        1
 62
     0
 92
       -2
340
14
 93
        0
 40
1.125
309
GRIDFORMAT_END
 95
        8
302
GRIDFORMAT
  1
GRIDFORMAT_BEGIN
 90
        0
 91
        1
 62
     0
 92
       -2
340
14
 93
        0
 40
1.125
309
GRIDFORMAT_END
 95
       16
302
GRIDFORMAT
  1
GRIDFORMAT_BEGIN
 90
        0
 91
        1
 62
     0
 92
       -2
340
14
 93
        0
 40
1.125
309
GRIDFORMAT_END
 95
       32
302
GRIDFORMAT
  1
GRIDFORMAT_BEGIN
 90
        0
 91
        1
 62
     0
 92
       -2
340
14
 93
        0
 40
1.125
309
GRIDFORMAT_END
309
TABLEFORMAT_END
  1
CELLSTYLE_BEGIN
 90
        3
 91
        2
300
_DATA
309
CELLSTYLE_END
  0
XRECORD
  5
12BC
102
{ACAD_REACTORS
330
162
102
}
330
162
100
AcDbXrecord
280
     1
102
ACAD_ROUNDTRIP_PRE2007_TABLESTYLE
 90
      512
 91
        0
  1

 92
      512
 93
        0
  2

 94
      512
 95
        0
  3

  0
ENDSEC
  0
EOF
