  0
SECTION
  2
HEADER
  9
$ACADVER
  1
AC1015
  9
$ACADMAINTVER
 70
    20
  9
$DWGCODEPAGE
  3
ANSI_1252
  9
$INSBASE
 10
0.0
 20
0.0
 30
0.0
  9
$EXTMIN
 10
506.4830403558871
 20
460.0880596987997
 30
-0.0015258207003583
  9
$EXTMAX
 10
597.5015270634339
 20
524.8923606248252
 30
0.0000000349246037
  9
$LIMMIN
 10
0.0
 20
0.0
  9
$LIMMAX
 10
420.0
 20
297.0
  9
$ORTHOMODE
 70
     1
  9
$REGENMODE
 70
     1
  9
$FILLMODE
 70
     1
  9
$QTEXTMODE
 70
     0
  9
$MIRRTEXT
 70
     0
  9
$LTSCALE
 40
1.0
  9
$ATTMODE
 70
     1
  9
$TEXTSIZE
 40
2.5
  9
$TRACEWID
 40
1.0
  9
$TEXTSTYLE
  7
Standard
  9
$CLAYER
  8
dim
  9
$CELTYPE
  6
ByLayer
  9
$CECOLOR
 62
   256
  9
$CELTSCALE
 40
1.0
  9
$DISPSILH
 70
     0
  9
$DIMSCALE
 40
1.0
  9
$DIMASZ
 40
2.5
  9
$DIMEXO
 40
0.625
  9
$DIMDLI
 40
3.75
  9
$DIMRND
 40
0.0
  9
$DIMDLE
 40
0.0
  9
$DIMEXE
 40
1.25
  9
$DIMTP
 40
0.0
  9
$DIMTM
 40
0.0
  9
$DIMTXT
 40
2.5
  9
$DIMCEN
 40
2.5
  9
$DIMTSZ
 40
0.0
  9
$DIMTOL
 70
     0
  9
$DIMLIM
 70
     0
  9
$DIMTIH
 70
     0
  9
$DIMTOH
 70
     0
  9
$DIMSE1
 70
     0
  9
$DIMSE2
 70
     0
  9
$DIMTAD
 70
     1
  9
$DIMZIN
 70
     8
  9
$DIMBLK
  1

  9
$DIMASO
 70
     1
  9
$DIMSHO
 70
     1
  9
$DIMPOST
  1

  9
$DIMAPOST
  1

  9
$DIMALT
 70
     0
  9
$DIMALTD
 70
     3
  9
$DIMALTF
 40
0.03937007874016
  9
$DIMLFAC
 40
1.0
  9
$DIMTOFL
 70
     1
  9
$DIMTVP
 40
0.0
  9
$DIMTIX
 70
     0
  9
$DIMSOXD
 70
     0
  9
$DIMSAH
 70
     0
  9
$DIMBLK1
  1

  9
$DIMBLK2
  1

  9
$DIMSTYLE
  2
ISO-25
  9
$DIMCLRD
 70
     0
  9
$DIMCLRE
 70
     0
  9
$DIMCLRT
 70
     0
  9
$DIMTFAC
 40
1.0
  9
$DIMGAP
 40
0.625
  9
$DIMJUST
 70
     0
  9
$DIMSD1
 70
     0
  9
$DIMSD2
 70
     0
  9
$DIMTOLJ
 70
     0
  9
$DIMTZIN
 70
     8
  9
$DIMALTZ
 70
     0
  9
$DIMALTTZ
 70
     0
  9
$DIMUPT
 70
     0
  9
$DIMDEC
 70
     0
  9
$DIMTDEC
 70
     0
  9
$DIMALTU
 70
     2
  9
$DIMALTTD
 70
     3
  9
$DIMTXSTY
  7
Standard
  9
$DIMAUNIT
 70
     0
  9
$DIMADEC
 70
     0
  9
$DIMALTRND
 40
0.0
  9
$DIMAZIN
 70
     0
  9
$DIMDSEP
 70
    44
  9
$DIMATFIT
 70
     3
  9
$DIMFRAC
 70
     0
  9
$DIMLDRBLK
  1

  9
$DIMLUNIT
 70
     2
  9
$DIMLWD
 70
    -2
  9
$DIMLWE
 70
    -2
  9
$DIMTMOVE
 70
     0
  9
$LUNITS
 70
     2
  9
$LUPREC
 70
     0
  9
$SKETCHINC
 40
1.0
  9
$FILLETRAD
 40
0.0
  9
$AUNITS
 70
     0
  9
$AUPREC
 70
     0
  9
$MENU
  1
.
  9
$ELEVATION
 40
0.0
  9
$PELEVATION
 40
0.0
  9
$THICKNESS
 40
0.0
  9
$LIMCHECK
 70
     0
  9
$CHAMFERA
 40
0.0
  9
$CHAMFERB
 40
0.0
  9
$CHAMFERC
 40
0.0
  9
$CHAMFERD
 40
0.0
  9
$SKPOLY
 70
     0
  9
$TDCREATE
 40
2456671.647925521
  9
$TDUCREATE
 40
2456671.210425521
  9
$TDUPDATE
 40
2456671.669717697
  9
$TDUUPDATE
 40
2456671.232217697
  9
$TDINDWG
 40
0.0217936227
  9
$TDUSRTIMER
 40
0.0217936227
  9
$USRTIMER
 70
     1
  9
$ANGBASE
 50
0.0
  9
$ANGDIR
 70
     0
  9
$PDMODE
 70
     0
  9
$PDSIZE
 40
0.0
  9
$PLINEWID
 40
0.0
  9
$SPLFRAME
 70
     0
  9
$SPLINETYPE
 70
     6
  9
$SPLINESEGS
 70
     8
  9
$HANDSEED
  5
E7D
  9
$SURFTAB1
 70
     6
  9
$SURFTAB2
 70
     6
  9
$SURFTYPE
 70
     6
  9
$SURFU
 70
     6
  9
$SURFV
 70
     6
  9
$UCSBASE
  2

  9
$UCSNAME
  2

  9
$UCSORG
 10
0.0
 20
0.0
 30
0.0
  9
$UCSXDIR
 10
1.0
 20
0.0
 30
0.0
  9
$UCSYDIR
 10
0.0
 20
1.0
 30
0.0
  9
$UCSORTHOREF
  2

  9
$UCSORTHOVIEW
 70
     0
  9
$UCSORGTOP
 10
0.0
 20
0.0
 30
0.0
  9
$UCSORGBOTTOM
 10
0.0
 20
0.0
 30
0.0
  9
$UCSORGLEFT
 10
0.0
 20
0.0
 30
0.0
  9
$UCSORGRIGHT
 10
0.0
 20
0.0
 30
0.0
  9
$UCSORGFRONT
 10
0.0
 20
0.0
 30
0.0
  9
$UCSORGBACK
 10
0.0
 20
0.0
 30
0.0
  9
$PUCSBASE
  2

  9
$PUCSNAME
  2

  9
$PUCSORG
 10
0.0
 20
0.0
 30
0.0
  9
$PUCSXDIR
 10
1.0
 20
0.0
 30
0.0
  9
$PUCSYDIR
 10
0.0
 20
1.0
 30
0.0
  9
$PUCSORTHOREF
  2

  9
$PUCSORTHOVIEW
 70
     0
  9
$PUCSORGTOP
 10
0.0
 20
0.0
 30
0.0
  9
$PUCSORGBOTTOM
 10
0.0
 20
0.0
 30
0.0
  9
$PUCSORGLEFT
 10
0.0
 20
0.0
 30
0.0
  9
$PUCSORGRIGHT
 10
0.0
 20
0.0
 30
0.0
  9
$PUCSORGFRONT
 10
0.0
 20
0.0
 30
0.0
  9
$PUCSORGBACK
 10
0.0
 20
0.0
 30
0.0
  9
$USERI1
 70
     0
  9
$USERI2
 70
     0
  9
$USERI3
 70
     0
  9
$USERI4
 70
     0
  9
$USERI5
 70
     0
  9
$USERR1
 40
0.0
  9
$USERR2
 40
0.0
  9
$USERR3
 40
0.0
  9
$USERR4
 40
0.0
  9
$USERR5
 40
0.0
  9
$WORLDVIEW
 70
     1
  9
$SHADEDGE
 70
     3
  9
$SHADEDIF
 70
    70
  9
$TILEMODE
 70
     1
  9
$MAXACTVP
 70
    64
  9
$PINSBASE
 10
0.0
 20
0.0
 30
0.0
  9
$PLIMCHECK
 70
     0
  9
$PEXTMIN
 10
0.0
 20
0.0
 30
0.0
  9
$PEXTMAX
 10
0.0
 20
0.0
 30
0.0
  9
$PLIMMIN
 10
0.0
 20
0.0
  9
$PLIMMAX
 10
12.0
 20
9.0
  9
$UNITMODE
 70
     0
  9
$VISRETAIN
 70
     1
  9
$PLINEGEN
 70
     0
  9
$PSLTSCALE
 70
     1
  9
$TREEDEPTH
 70
  3020
  9
$CMLSTYLE
  2
Standard
  9
$CMLJUST
 70
     0
  9
$CMLSCALE
 40
20.0
  9
$PROXYGRAPHICS
 70
     1
  9
$MEASUREMENT
 70
     1
  9
$CELWEIGHT
370
    -1
  9
$ENDCAPS
280
     0
  9
$JOINSTYLE
280
     0
  9
$LWDISPLAY
290
     0
  9
$INSUNITS
 70
     4
  9
$HYPERLINKBASE
  1

  9
$STYLESHEET
  1

  9
$XEDIT
290
     1
  9
$CEPSNTYPE
380
     0
  9
$PSTYLEMODE
290
     1
  9
$FINGERPRINTGUID
  2
{7A48C599-B044-4386-AB32-8D31A63BE308}
  9
$VERSIONGUID
  2
{8D58C130-2D35-48F0-8A33-CAB1B5CF20E7}
  9
$EXTNAMES
290
     1
  9
$PSVPSCALE
 40
0.0
  9
$OLESTARTUP
290
     0
  0
ENDSEC
  0
SECTION
  2
CLASSES
  0
CLASS
  1
ACDBDICTIONARYWDFLT
  2
AcDbDictionaryWithDefault
  3
ObjectDBX Classes
 90
        0
280
     0
281
     0
  0
CLASS
  1
ACDBPLACEHOLDER
  2
AcDbPlaceHolder
  3
ObjectDBX Classes
 90
        0
280
     0
281
     0
  0
CLASS
  1
LAYOUT
  2
AcDbLayout
  3
ObjectDBX Classes
 90
        0
280
     0
281
     0
  0
CLASS
  1
DICTIONARYVAR
  2
AcDbDictionaryVar
  3
ObjectDBX Classes
 90
        0
280
     0
281
     0
  0
CLASS
  1
TABLESTYLE
  2
AcDbTableStyle
  3
ObjectDBX Classes
 90
     2047
280
     0
281
     0
  0
CLASS
  1
DIMASSOC
  2
AcDbDimAssoc
  3
"AcDbDimAssoc|Product Desc:     AcDim ARX App For Dimension|Company:          Autodesk, Inc.|WEB Address:      www.autodesk.com"
 90
        0
280
     0
281
     0
  0
CLASS
  1
SORTENTSTABLE
  2
AcDbSortentsTable
  3
ObjectDBX Classes
 90
        0
280
     0
281
     0
  0
ENDSEC
  0
SECTION
  2
TABLES
  0
TABLE
  2
VPORT
  5
8
330
0
100
AcDbSymbolTable
 70
     4
  0
VPORT
  5
E74
330
8
100
AcDbSymbolTableRecord
100
AcDbViewportTableRecord
  2
*Active
 70
     0
 10
0.0
 20
0.0
 11
1.0
 21
1.0
 12
558.7739636014634
 22
497.663403809524
 13
0.0
 23
0.0
 14
10.0
 24
10.0
 15
10.0
 25
10.0
 16
0.0
 26
0.0
 36
1.0
 17
0.0
 27
0.0
 37
0.0
 40
92.59857153874582
 41
1.85901309164149
 42
50.0
 43
0.0
 44
0.0
 50
0.0
 51
0.0
 71
     0
 72
  1000
 73
     1
 74
     3
 75
     0
 76
     0
 77
     0
 78
     0
281
     0
 65
     1
110
0.0
120
0.0
130
0.0
111
1.0
121
0.0
131
0.0
112
0.0
122
1.0
132
0.0
 79
     0
146
0.0
  0
ENDTAB
  0
TABLE
  2
LTYPE
  5
5
330
0
100
AcDbSymbolTable
 70
     2
  0
LTYPE
  5
14
330
5
100
AcDbSymbolTableRecord
100
AcDbLinetypeTableRecord
  2
ByBlock
 70
     0
  3

 72
    65
 73
     0
 40
0.0
  0
LTYPE
  5
15
330
5
100
AcDbSymbolTableRecord
100
AcDbLinetypeTableRecord
  2
ByLayer
 70
     0
  3

 72
    65
 73
     0
 40
0.0
  0
LTYPE
  5
16
330
5
100
AcDbSymbolTableRecord
100
AcDbLinetypeTableRecord
  2
Continuous
 70
     0
  3
Solid line
 72
    65
 73
     0
 40
0.0
  0
ENDTAB
  0
TABLE
  2
LAYER
  5
2
102
{ACAD_XDICTIONARY
360
E8
102
}
330
0
100
AcDbSymbolTable
 70
     3
  0
LAYER
  5
10
330
2
100
AcDbSymbolTableRecord
100
AcDbLayerTableRecord
  2
0
 70
     0
 62
     7
  6
Continuous
370
    -3
390
F
  0
LAYER
  5
E5
330
2
100
AcDbSymbolTableRecord
100
AcDbLayerTableRecord
  2
dim
 70
     0
 62
     3
  6
Continuous
370
    -3
390
F
1001
AcAecLayerStandard
1000

1000

  0
LAYER
  5
131
330
2
100
AcDbSymbolTableRecord
100
AcDbLayerTableRecord
  2
Defpoints
 70
     0
 62
     7
  6
Continuous
290
     0
370
    -3
390
F
  0
ENDTAB
  0
TABLE
  2
STYLE
  5
3
330
0
100
AcDbSymbolTable
 70
     2
  0
STYLE
  5
11
330
3
100
AcDbSymbolTableRecord
100
AcDbTextStyleTableRecord
  2
Standard
 70
     0
 40
0.0
 41
1.0
 50
0.0
 71
     0
 42
2.5
  3
txt
  4

  0
STYLE
  5
E6
330
3
100
AcDbSymbolTableRecord
100
AcDbTextStyleTableRecord
  2
ISO08
 70
     0
 40
0.0
 41
0.8
 50
0.0
 71
     0
 42
5.0
  3
ISO3098B.SHX
  4

  0
ENDTAB
  0
TABLE
  2
VIEW
  5
6
330
0
100
AcDbSymbolTable
 70
     0
  0
ENDTAB
  0
TABLE
  2
UCS
  5
7
330
0
100
AcDbSymbolTable
 70
     0
  0
ENDTAB
  0
TABLE
  2
APPID
  5
9
330
0
100
AcDbSymbolTable
 70
    12
  0
APPID
  5
12
330
9
100
AcDbSymbolTableRecord
100
AcDbRegAppTableRecord
  2
ACAD
 70
     0
  0
APPID
  5
9E
330
9
100
AcDbSymbolTableRecord
100
AcDbRegAppTableRecord
  2
ACAD_PSEXT
 70
     0
  0
APPID
  5
E7
330
9
100
AcDbSymbolTableRecord
100
AcDbRegAppTableRecord
  2
AcAecLayerStandard
 70
     0
  0
APPID
  5
161
330
9
100
AcDbSymbolTableRecord
100
AcDbRegAppTableRecord
  2
ACAD_DSTYLE_DIMTEXT_FILL
 70
     0
  0
APPID
  5
162
330
9
100
AcDbSymbolTableRecord
100
AcDbRegAppTableRecord
  2
ACAD_DSTYLE_DIMEXT_LENGTH
 70
     0
  0
APPID
  5
163
330
9
100
AcDbSymbolTableRecord
100
AcDbRegAppTableRecord
  2
ACAD_DSTYLE_DIMEXT_ENABLED
 70
     0
  0
APPID
  5
164
330
9
100
AcDbSymbolTableRecord
100
AcDbRegAppTableRecord
  2
ACAD_DSTYLE_DIM_LINETYPE
 70
     0
  0
APPID
  5
165
330
9
100
AcDbSymbolTableRecord
100
AcDbRegAppTableRecord
  2
ACAD_DSTYLE_DIM_EXT1_LINETYPE
 70
     0
  0
APPID
  5
166
330
9
100
AcDbSymbolTableRecord
100
AcDbRegAppTableRecord
  2
ACAD_DSTYLE_DIM_EXT2_LINETYPE
 70
     0
  0
APPID
  5
222
330
9
100
AcDbSymbolTableRecord
100
AcDbRegAppTableRecord
  2
ACAD_DSTYLE_DIMJOGGED_JOGANGLE_SYMBOL
 70
     0
  0
APPID
  5
886
330
9
100
AcDbSymbolTableRecord
100
AcDbRegAppTableRecord
  2
ACAD_DSTYLE_DIMARC_LENGTH_SYMBOL
 70
     0
  0
APPID
  5
AFD
330
9
100
AcDbSymbolTableRecord
100
AcDbRegAppTableRecord
  2
ACAD_EXEMPT_FROM_CAD_STANDARDS
 70
     0
  0
ENDTAB
  0
TABLE
  2
DIMSTYLE
  5
A
330
0
100
AcDbSymbolTable
 70
     2
100
AcDbDimStyleTable
 71
     1
340
27
  0
DIMSTYLE
105
27
102
{ACAD_REACTORS
330
130
330
149
330
8FD
330
939
102
}
330
A
100
AcDbSymbolTableRecord
100
AcDbDimStyleTableRecord
  2
ISO-25
 70
     0
 41
2.5
 42
0.625
 43
3.75
 44
1.25
 73
     0
 74
     0
 77
     1
 78
     8
140
2.5
141
2.5
143
0.03937007874016
147
0.625
171
     3
172
     1
271
     0
272
     0
274
     3
278
    44
283
     0
284
     8
340
11
1001
ACAD_DSTYLE_DIMEXT_LENGTH
1070
   378
1040
1.25
1001
ACAD_DSTYLE_DIMEXT_ENABLED
1070
   383
1070
     0
1001
ACAD_DSTYLE_DIMARC_LENGTH_SYMBOL
1070
   379
1070
     0
1001
ACAD_DSTYLE_DIMJOGGED_JOGANGLE_SYMBOL
1070
   384
1040
1.570796326794896
  0
ENDTAB
  0
TABLE
  2
BLOCK_RECORD
  5
1
330
0
100
AcDbSymbolTable
 70
     7
  0
BLOCK_RECORD
  5
1F
102
{ACAD_XDICTIONARY
360
C9E
102
}
330
1
100
AcDbSymbolTableRecord
100
AcDbBlockTableRecord
  2
*Model_Space
340
22
  0
BLOCK_RECORD
  5
D2
330
1
100
AcDbSymbolTableRecord
100
AcDbBlockTableRecord
  2
*Paper_Space
340
D3
  0
BLOCK_RECORD
  5
D6
330
1
100
AcDbSymbolTableRecord
100
AcDbBlockTableRecord
  2
*Paper_Space0
340
D7
  0
BLOCK_RECORD
  5
132
330
1
100
AcDbSymbolTableRecord
100
AcDbBlockTableRecord
  2
*D2
340
0
  0
BLOCK_RECORD
  5
14A
330
1
100
AcDbSymbolTableRecord
100
AcDbBlockTableRecord
  2
*D3
340
0
  0
BLOCK_RECORD
  5
8FE
330
1
100
AcDbSymbolTableRecord
100
AcDbBlockTableRecord
  2
*D4
340
0
  0
BLOCK_RECORD
  5
93A
330
1
100
AcDbSymbolTableRecord
100
AcDbBlockTableRecord
  2
*D5
340
0
  0
ENDTAB
  0
ENDSEC
  0
SECTION
  2
BLOCKS
  0
BLOCK
  5
20
330
1F
100
AcDbEntity
  8
0
100
AcDbBlockBegin
  2
*Model_Space
 70
     0
 10
0.0
 20
0.0
 30
0.0
  3
*Model_Space
  1

  0
ENDBLK
  5
21
330
1F
100
AcDbEntity
  8
0
100
AcDbBlockEnd
  0
BLOCK
  5
D4
330
D2
100
AcDbEntity
 67
     1
  8
0
100
AcDbBlockBegin
  2
*Paper_Space
 70
     0
 10
0.0
 20
0.0
 30
0.0
  3
*Paper_Space
  1

  0
ENDBLK
  5
D5
330
D2
100
AcDbEntity
 67
     1
  8
0
100
AcDbBlockEnd
  0
BLOCK
  5
D8
330
D6
100
AcDbEntity
 67
     1
  8
0
100
AcDbBlockBegin
  2
*Paper_Space0
 70
     0
 10
0.0
 20
0.0
 30
0.0
  3
*Paper_Space0
  1

  0
ENDBLK
  5
D9
330
D6
100
AcDbEntity
 67
     1
  8
0
100
AcDbBlockEnd
  0
BLOCK
  5
13C
330
132
100
AcDbEntity
  8
0
100
AcDbBlockBegin
  2
*D2
 70
     1
 10
0.0
 20
0.0
 30
0.0
  3
*D2
  1

  0
LINE
  5
E16
330
132
100
AcDbEntity
  8
dim
 62
     0
370
    -2
100
AcDbLine
 10
506.4864445311512
 20
492.4264698140452
 30
0.0
 11
506.4864445311512
 21
484.4683468619329
 31
0.0
  0
LINE
  5
E17
330
132
100
AcDbEntity
  8
dim
 62
     0
370
    -2
100
AcDbLine
 10
518.945996914747
 20
492.2160260831238
 30
0.0
 11
518.945996914747
 21
484.4683468619329
 31
0.0
  0
LINE
  5
E18
330
132
100
AcDbEntity
  8
dim
 62
     0
370
    -2
100
AcDbLine
 10
508.9864445311511
 20
485.718346861933
 30
0.0
 11
516.445996914747
 21
485.718346861933
 31
0.0
  0
SOLID
  5
E19
330
132
100
AcDbEntity
  8
dim
 62
     0
100
AcDbTrace
 10
508.9864445311511
 20
486.1350135285997
 30
0.0
 11
508.9864445311511
 21
485.3016801952663
 31
0.0
 12
506.4864445311512
 22
485.718346861933
 32
0.0
 13
506.4864445311512
 23
485.718346861933
 33
0.0
  0
SOLID
  5
E1A
330
132
100
AcDbEntity
  8
dim
 62
     0
100
AcDbTrace
 10
516.445996914747
 20
486.1350135285997
 30
0.0
 11
516.445996914747
 21
485.3016801952663
 31
0.0
 12
518.945996914747
 22
485.718346861933
 32
0.0
 13
518.945996914747
 23
485.718346861933
 33
0.0
  0
MTEXT
  5
E1B
330
132
100
AcDbEntity
  8
dim
 62
     0
100
AcDbMText
 10
512.7162207229491
 20
487.5933468619329
 30
0.0
 40
2.5
 41
0.0
 71
     5
 72
     1
  1
12
 73
     1
 44
1.0
1001
ACAD
1000
MTEXTBEGIN
1070
    73
1070
     1
1070
    44
1040
1.0
1070
    74
1070
     0
1000
MTEXTEND
  0
POINT
  5
E1C
330
132
100
AcDbEntity
  8
Defpoints
 62
     0
100
AcDbPoint
 10
506.4864445311512
 20
493.0514698140451
 30
0.0
  0
POINT
  5
E1D
330
132
100
AcDbEntity
  8
Defpoints
 62
     0
100
AcDbPoint
 10
518.945996914747
 20
492.8410260831238
 30
0.0
  0
POINT
  5
E1E
330
132
100
AcDbEntity
  8
Defpoints
 62
     0
100
AcDbPoint
 10
518.945996914747
 20
485.718346861933
 30
0.0
  0
ENDBLK
  5
13D
330
132
100
AcDbEntity
  8
0
100
AcDbBlockEnd
  0
BLOCK
  5
154
330
14A
100
AcDbEntity
  8
0
100
AcDbBlockBegin
  2
*D3
 70
     1
 10
0.0
 20
0.0
 30
0.0
  3
*D3
  1

  0
LINE
  5
E6A
330
14A
100
AcDbEntity
  8
dim
 62
     0
370
    -2
100
AcDbLine
 10
523.3647621294786
 20
514.2150282372621
 30
0.0
 11
523.3647621294786
 21
522.6006939581582
 31
0.0
  0
LINE
  5
E6B
330
14A
100
AcDbEntity
  8
dim
 62
     0
370
    -2
100
AcDbLine
 10
552.8647621294785
 20
514.2150282372621
 30
0.0
 11
552.8647621294785
 21
522.6006939581582
 31
0.0
  0
LINE
  5
E6C
330
14A
100
AcDbEntity
  8
dim
 62
     0
370
    -2
100
AcDbLine
 10
525.8647621294787
 20
521.3506939581582
 30
0.0
 11
550.3647621294785
 21
521.3506939581582
 31
0.0
  0
SOLID
  5
E6D
330
14A
100
AcDbEntity
  8
dim
 62
     0
100
AcDbTrace
 10
525.8647621294787
 20
521.7673606248248
 30
0.0
 11
525.8647621294787
 21
520.9340272914915
 31
0.0
 12
523.3647621294786
 22
521.3506939581582
 32
0.0
 13
523.3647621294786
 23
521.3506939581582
 33
0.0
  0
SOLID
  5
E6E
330
14A
100
AcDbEntity
  8
dim
 62
     0
100
AcDbTrace
 10
550.3647621294785
 20
521.7673606248248
 30
0.0
 11
550.3647621294785
 21
520.9340272914915
 31
0.0
 12
552.8647621294785
 22
521.3506939581582
 32
0.0
 13
552.8647621294785
 23
521.3506939581582
 33
0.0
  0
MTEXT
  5
E6F
330
14A
100
AcDbEntity
  8
dim
 62
     0
100
AcDbMText
 10
538.1147621294785
 20
523.2256939581581
 30
0.0
 40
2.5
 41
0.0
 71
     5
 72
     1
  1
29.5
 73
     1
 44
1.0
1001
ACAD
1000
MTEXTBEGIN
1070
    73
1070
     1
1070
    44
1040
1.0
1070
    74
1070
     0
1000
MTEXTEND
  0
POINT
  5
E70
330
14A
100
AcDbEntity
  8
Defpoints
 62
     0
100
AcDbPoint
 10
523.3647621294786
 20
513.5900282372621
 30
0.0
  0
POINT
  5
E71
330
14A
100
AcDbEntity
  8
Defpoints
 62
     0
100
AcDbPoint
 10
552.8647621294785
 20
513.5900282372621
 30
0.0
  0
POINT
  5
E72
330
14A
100
AcDbEntity
  8
Defpoints
 62
     0
100
AcDbPoint
 10
552.8647621294785
 20
521.3506939581582
 30
0.0
  0
ENDBLK
  5
155
330
14A
100
AcDbEntity
  8
0
100
AcDbBlockEnd
  0
BLOCK
  5
908
330
8FE
100
AcDbEntity
  8
0
100
AcDbBlockBegin
  2
*D4
 70
     1
 10
0.0
 20
0.0
 30
0.0
  3
*D4
  1

  0
LINE
  5
E28
330
8FE
100
AcDbEntity
  8
dim
 62
     0
370
    -2
100
AcDbLine
 10
506.4831651254579
 20
492.4702915153995
 30
0.0
 11
506.4831651254579
 21
477.937763825246
 31
0.0
  0
LINE
  5
E29
330
8FE
100
AcDbEntity
  8
dim
 62
     0
370
    -2
100
AcDbLine
 10
569.2448444298889
 20
492.5874765459221
 30
0.0
 11
569.2448444298889
 21
477.937763825246
 31
0.0
  0
LINE
  5
E2A
330
8FE
100
AcDbEntity
  8
dim
 62
     0
370
    -2
100
AcDbLine
 10
508.9831651254579
 20
479.1877638252461
 30
0.0
 11
566.744844429889
 21
479.1877638252461
 31
0.0
  0
SOLID
  5
E2B
330
8FE
100
AcDbEntity
  8
dim
 62
     0
100
AcDbTrace
 10
508.9831651254579
 20
479.6044304919127
 30
0.0
 11
508.9831651254579
 21
478.7710971585793
 31
0.0
 12
506.4831651254579
 22
479.1877638252461
 32
0.0
 13
506.4831651254579
 23
479.1877638252461
 33
0.0
  0
SOLID
  5
E2C
330
8FE
100
AcDbEntity
  8
dim
 62
     0
100
AcDbTrace
 10
566.744844429889
 20
479.6044304919127
 30
0.0
 11
566.744844429889
 21
478.7710971585793
 31
0.0
 12
569.2448444298889
 22
479.1877638252461
 32
0.0
 13
569.2448444298889
 23
479.1877638252461
 33
0.0
  0
MTEXT
  5
E2D
330
8FE
100
AcDbEntity
  8
dim
 62
     0
100
AcDbMText
 10
537.8640047776734
 20
481.062763825246
 30
0.0
 40
2.5
 41
0.0
 71
     5
 72
     1
  1
63
 73
     1
 44
1.0
1001
ACAD
1000
MTEXTBEGIN
1070
    73
1070
     1
1070
    44
1040
1.0
1070
    74
1070
     0
1000
MTEXTEND
  0
POINT
  5
E2E
330
8FE
100
AcDbEntity
  8
Defpoints
 62
     0
100
AcDbPoint
 10
506.4831651254579
 20
493.0952915153995
 30
0.0
  0
POINT
  5
E2F
330
8FE
100
AcDbEntity
  8
Defpoints
 62
     0
100
AcDbPoint
 10
569.2448444298889
 20
493.2124765459222
 30
0.0
  0
POINT
  5
E30
330
8FE
100
AcDbEntity
  8
Defpoints
 62
     0
100
AcDbPoint
 10
569.2448444298889
 20
479.1877638252461
 30
0.0
  0
ENDBLK
  5
909
330
8FE
100
AcDbEntity
  8
0
100
AcDbBlockEnd
  0
BLOCK
  5
944
330
93A
100
AcDbEntity
  8
0
100
AcDbBlockBegin
  2
*D5
 70
     1
 10
0.0
 20
0.0
 30
0.0
  3
*D5
  1

  0
LINE
  5
E31
330
93A
100
AcDbEntity
  8
dim
 62
     0
370
    -2
100
AcDbLine
 10
568.9525464845383
 20
492.2220174836554
 30
0.0
 11
585.1796367655106
 21
492.2220174836554
 31
0.0
  0
LINE
  5
E32
330
93A
100
AcDbEntity
  8
dim
 62
     0
370
    -2
100
AcDbLine
 10
552.8741006541529
 20
513.8020174836554
 30
0.0
 11
585.1796367655106
 21
513.8020174836554
 31
0.0
  0
LINE
  5
E33
330
93A
100
AcDbEntity
  8
dim
 62
     0
370
    -2
100
AcDbLine
 10
583.9296367655106
 20
494.7220174836554
 30
0.0
 11
583.9296367655106
 21
511.3020174836553
 31
0.0
  0
SOLID
  5
E34
330
93A
100
AcDbEntity
  8
dim
 62
     0
100
AcDbTrace
 10
583.5129700988439
 20
494.7220174836554
 30
0.0
 11
584.3463034321772
 21
494.7220174836554
 31
0.0
 12
583.9296367655106
 22
492.2220174836554
 32
0.0
 13
583.9296367655106
 23
492.2220174836554
 33
0.0
  0
SOLID
  5
E35
330
93A
100
AcDbEntity
  8
dim
 62
     0
100
AcDbTrace
 10
583.5129700988439
 20
511.3020174836553
 30
0.0
 11
584.3463034321772
 21
511.3020174836553
 31
0.0
 12
583.9296367655106
 22
513.8020174836554
 32
0.0
 13
583.9296367655106
 23
513.8020174836554
 33
0.0
  0
MTEXT
  5
E36
330
93A
100
AcDbEntity
  8
dim
 62
     0
100
AcDbMText
 10
582.0546367655104
 20
503.0120174836555
 30
0.0
 40
2.5
 41
0.0
 71
     5
 72
     1
  1
22.5
 11
0.0000000000000001
 21
1.0
 31
0.0
 73
     1
 44
1.0
1001
ACAD
1000
MTEXTBEGIN
1070
    73
1070
     1
1070
    44
1040
1.0
1070
    74
1070
     0
1000
MTEXTEND
  0
POINT
  5
E37
330
93A
100
AcDbEntity
  8
Defpoints
 62
     0
100
AcDbPoint
 10
568.3275464845382
 20
492.2220174836554
 30
0.0
  0
POINT
  5
E38
330
93A
100
AcDbEntity
  8
Defpoints
 62
     0
100
AcDbPoint
 10
552.2491006541529
 20
513.8020174836554
 30
0.0
  0
POINT
  5
E39
330
93A
100
AcDbEntity
  8
Defpoints
 62
     0
100
AcDbPoint
 10
583.9296367655106
 20
513.8020174836554
 30
0.0
  0
ENDBLK
  5
945
330
93A
100
AcDbEntity
  8
0
100
AcDbBlockEnd
  0
ENDSEC
  0
SECTION
  2
ENTITIES
  0
LINE
  5
10F
330
1F
100
AcDbEntity
  8
0
100
AcDbLine
 10
507.4019777744187
 20
492.2220174836554
 30
0.0
 11
517.1482654067962
 21
492.2220174836554
 31
0.0
  0
LINE
  5
110
330
1F
100
AcDbEntity
  8
0
100
AcDbLine
 10
538.1147621294785
 20
513.8020174836554
 30
0.0
 11
523.9804236048042
 21
513.8020174836554
 31
0.0
  0
ARC
  5
111
102
{ACAD_REACTORS
330
160
102
}
330
1F
100
AcDbEntity
  8
0
100
AcDbCircle
 10
523.9804236048042
 20
512.8020174836554
 30
0.0
 40
1.0
100
AcDbArc
 50
90.0
 51
165.9999999999972
  0
LINE
  5
112
330
1F
100
AcDbEntity
  8
0
100
AcDbLine
 10
523.0101278785283
 20
513.0439393792551
 30
0.0
 11
519.981528927522
 21
494.4356055485044
 31
0.0
  0
ARC
  5
113
102
{ACAD_REACTORS
330
148
102
}
330
1F
100
AcDbEntity
  8
0
100
AcDbCircle
 10
517.1482654067962
 20
495.1420174836555
 30
0.0
 40
2.919999999999999
100
AcDbArc
 50
270.0
 51
345.9999999999972
  0
ARC
  5
117
102
{ACAD_REACTORS
330
148
102
}
330
1F
100
AcDbEntity
  8
0
100
AcDbCircle
 10
507.4019777744187
 20
493.1420174836555
 30
0.0
 40
0.9199999999999999
100
AcDbArc
 50
134.2840267159715
 51
270.0
  0
LINE
  5
118
330
1F
100
AcDbEntity
  8
0
100
AcDbLine
 10
506.7596193001575
 20
493.8006339050607
 30
0.0
 11
508.7275509366577
 21
494.9402056805781
 31
0.0
  0
TEXT
  5
11F
330
1F
100
AcDbEntity
  8
0
100
AcDbText
 10
507.7633088291523
 20
460.1042890071404
 30
0.0
 40
5.0
  1
TOPSPAN 22 CEILING BATTEN
 41
0.8
  7
ISO08
100
AcDbText
  0
LINE
  5
120
102
{ACAD_REACTORS
330
950
102
}
330
1F
100
AcDbEntity
  8
0
100
AcDbLine
 10
568.3275464845382
 20
492.2220174836554
 30
0.0
 11
558.5812588521608
 21
492.2220174836554
 31
0.0
  0
LINE
  5
121
330
1F
100
AcDbEntity
  8
0
100
AcDbLine
 10
538.1147621294785
 20
513.8020174836555
 30
0.0
 11
552.2491006541529
 21
513.8020174836554
 31
0.0
  0
ARC
  5
122
102
{ACAD_REACTORS
330
160
330
950
102
}
330
1F
100
AcDbEntity
  8
0
100
AcDbCircle
 10
552.2491006541529
 20
512.8020174836554
 30
0.0
 40
1.0
100
AcDbArc
 50
14.00000000000277
 51
90.0
  0
LINE
  5
123
330
1F
100
AcDbEntity
  8
0
100
AcDbLine
 10
553.2193963804288
 20
513.0439393792551
 30
0.0
 11
555.7479953314349
 21
494.4356055485044
 31
0.0
  0
ARC
  5
124
330
1F
100
AcDbEntity
  8
0
100
AcDbCircle
 10
558.5812588521608
 20
495.1420174836555
 30
0.0
 40
2.919999999999999
100
AcDbArc
 50
194.0000000000027
 51
270.0
  0
ARC
  5
128
330
1F
100
AcDbEntity
  8
0
100
AcDbCircle
 10
568.3275464845382
 20
493.1420174836555
 30
0.0
 40
0.9199999999999999
100
AcDbArc
 50
270.0
 51
45.71597328402844
  0
LINE
  5
129
330
1F
100
AcDbEntity
  8
0
100
AcDbLine
 10
568.9699049587995
 20
493.8006339050607
 30
0.0
 11
567.0019733222993
 21
494.9402056805781
 31
0.0
  0
DIMENSION
  5
130
102
{ACAD_XDICTIONARY
360
13E
102
}
102
{ACAD_REACTORS
330
148
102
}
330
1F
100
AcDbEntity
  8
dim
100
AcDbDimension
  2
*D2
 10
518.945996914747
 20
485.718346861933
 30
0.0
 11
512.7162207229491
 21
487.5933468619329
 31
0.0
 70
    32
 71
     5
 42
12.4595523835959
  3
ISO-25
100
AcDbAlignedDimension
 13
506.4864445311512
 23
493.0514698140451
 33
0.0
 14
518.945996914747
 24
492.8410260831238
 34
0.0
100
AcDbRotatedDimension
  0
DIMENSION
  5
149
102
{ACAD_XDICTIONARY
360
156
102
}
102
{ACAD_REACTORS
330
160
102
}
330
1F
100
AcDbEntity
  8
dim
100
AcDbDimension
  2
*D3
 10
552.8647621294785
 20
521.3506939581582
 30
0.0
 11
538.1147621294785
 21
523.2256939581581
 31
0.0
 70
    32
  1
29.5
 71
     5
 42
29.49999999999988
  3
ISO-25
100
AcDbAlignedDimension
 13
523.3647621294786
 23
513.5900282372621
 33
0.0
 14
552.8647621294785
 24
513.5900282372621
 34
0.0
100
AcDbRotatedDimension
  0
DIMENSION
  5
8FD
330
1F
100
AcDbEntity
  8
dim
100
AcDbDimension
  2
*D4
 10
569.2448444298889
 20
479.1877638252461
 30
0.0
 11
537.8640047776734
 21
481.062763825246
 31
0.0
 70
    32
 71
     5
 42
62.76167930443108
  3
ISO-25
100
AcDbAlignedDimension
 13
506.4831651254579
 23
493.0952915153995
 33
0.0
 14
569.2448444298889
 24
493.2124765459222
 34
0.0
100
AcDbRotatedDimension
  0
DIMENSION
  5
939
102
{ACAD_XDICTIONARY
360
946
102
}
102
{ACAD_REACTORS
330
950
102
}
330
1F
100
AcDbEntity
  8
dim
100
AcDbDimension
  2
*D5
 10
583.9296367655106
 20
513.8020174836554
 30
0.0
 11
582.0546367655104
 21
503.0120174836555
 31
0.0
 70
    32
  1
22.5
 71
     5
 42
21.57999999999993
  3
ISO-25
100
AcDbAlignedDimension
 13
568.3275464845382
 23
492.2220174836554
 33
0.0
 14
552.2491006541529
 24
513.8020174836554
 34
0.0
 50
90.0
100
AcDbRotatedDimension
  0
ENDSEC
  0
SECTION
  2
OBJECTS
  0
DICTIONARY
  5
C
330
0
100
AcDbDictionary
281
     1
  3
ACAD_COLOR
350
6B
  3
ACAD_GROUP
350
D
  3
ACAD_LAYOUT
350
1A
  3
ACAD_MATERIAL
350
6A
  3
ACAD_MLINESTYLE
350
17
  3
ACAD_PLOTSETTINGS
350
19
  3
ACAD_PLOTSTYLENAME
350
E
  3
ACAD_TABLESTYLE
350
7E
  3
ACDBHEADERROUNDTRIPXREC
350
E76
  3
AcDbVariableDictionary
350
5E
  3
DWGPROPS
350
E75
  0
DICTIONARY
  5
E8
330
2
100
AcDbDictionary
280
     1
281
     1
  3
ACAD_LAYERSTATES
360
E9
  0
DICTIONARY
  5
C9E
330
1F
100
AcDbDictionary
280
     1
281
     1
  3
ACAD_SORTENTS
360
C9F
  0
DICTIONARY
  5
13E
330
130
100
AcDbDictionary
280
     1
281
     1
  3
ACAD_DIMASSOC
360
148
  0
DICTIONARY
  5
156
330
149
100
AcDbDictionary
280
     1
281
     1
  3
ACAD_DIMASSOC
360
160
  0
DICTIONARY
  5
946
330
939
100
AcDbDictionary
280
     1
281
     1
  3
ACAD_DIMASSOC
360
950
  0
DICTIONARY
  5
6B
102
{ACAD_REACTORS
330
C
102
}
330
C
100
AcDbDictionary
281
     1
  0
DICTIONARY
  5
D
102
{ACAD_REACTORS
330
C
102
}
330
C
100
AcDbDictionary
281
     1
  0
DICTIONARY
  5
1A
102
{ACAD_REACTORS
330
C
102
}
330
C
100
AcDbDictionary
281
     1
  3
Layout1
350
D3
  3
Layout2
350
D7
  3
Model
350
22
  0
DICTIONARY
  5
6A
102
{ACAD_REACTORS
330
C
102
}
330
C
100
AcDbDictionary
281
     1
  0
DICTIONARY
  5
17
102
{ACAD_REACTORS
330
C
102
}
330
C
100
AcDbDictionary
281
     1
  3
Standard
350
18
  0
DICTIONARY
  5
19
102
{ACAD_REACTORS
330
C
102
}
330
C
100
AcDbDictionary
281
     1
  0
ACDBDICTIONARYWDFLT
  5
E
102
{ACAD_REACTORS
330
C
102
}
330
C
100
AcDbDictionary
281
     1
  3
Normal
350
F
100
AcDbDictionaryWithDefault
340
F
  0
DICTIONARY
  5
7E
102
{ACAD_REACTORS
330
C
102
}
330
C
100
AcDbDictionary
281
     1
  3
Standard
350
7F
  0
DICTIONARY
  5
E76
102
{ACAD_REACTORS
330
C
102
}
330
C
100
AcDbDictionary
281
     1
  0
DICTIONARY
  5
5E
102
{ACAD_REACTORS
330
C
102
}
330
C
100
AcDbDictionary
281
     1
  3
CTABLESTYLE
350
84
  3
DIMASSOC
350
5F
  3
HIDETEXT
350
63
  3
PROJECTNAME
350
E73
  0
XRECORD
  5
E75
102
{ACAD_REACTORS
330
C
102
}
330
C
100
AcDbXrecord
280
     1
  1
DWGPROPS COOKIE
  2

  3

  4

  6

  7

  8
Autodesk
  9

300
=
301
=
302
=
303
=
304
=
305
=
306
=
307
=
308
=
309
=
 40
0.0217932638888889
 41
2456671.647925521
 42
2456671.669717697
  1

 90
        0
  0
DICTIONARY
  5
E9
102
{ACAD_REACTORS
330
E8
102
}
330
E8
100
AcDbDictionary
281
     1
  0
SORTENTSTABLE
  5
C9F
102
{ACAD_REACTORS
330
C9E
102
}
330
C9E
100
AcDbSortentsTable
330
1F
331
128
  5
128
331
117
  5
117
331
124
  5
124
331
113
  5
113
331
122
  5
122
331
111
  5
111
331
120
  5
120
331
10F
  5
10F
331
129
  5
129
331
118
  5
118
331
149
  5
149
331
123
  5
123
331
112
  5
112
331
8FD
  5
8FD
331
121
  5
121
331
110
  5
110
331
130
  5
130
331
11F
  5
11F
331
939
  5
939
  0
DIMASSOC
  5
148
102
{ACAD_REACTORS
330
13E
102
}
330
13E
100
AcDbDimAssoc
330
130
 90
        3
 70
     0
 71
     0
  1
AcDbOsnapPointRef
 72
     8
331
117
 73
     2
 91
        0
 40
3.244065075741804
 10
0.0
 20
0.0
 30
0.0
 75
     1
  1
AcDbOsnapPointRef
 72
     0
 40
0.0
 10
520.481528927522
 20
494.4356055485044
 30
0.0
 75
     0
  1
AcDbOsnapPointRef
 72
     2
331
113
 73
     2
 91
        0
 40
5.375614096142502
 10
0.0
 20
0.0
 30
0.0
 75
     0
  0
DIMASSOC
  5
160
102
{ACAD_REACTORS
330
156
102
}
330
156
100
AcDbDimAssoc
330
149
 90
        3
 70
     0
 71
     0
  1
AcDbOsnapPointRef
 72
     2
331
111
 73
     2
 91
        0
 40
2.234021442552711
 10
0.0
 20
0.0
 30
0.0
 75
     0
  1
AcDbOsnapPointRef
 72
     2
331
122
 73
     2
 91
        0
 40
0.9075712110370819
 10
0.0
 20
0.0
 30
0.0
 75
     0
  0
DIMASSOC
  5
950
102
{ACAD_REACTORS
330
946
102
}
330
946
100
AcDbDimAssoc
330
939
 90
        3
 70
     0
 71
     0
  1
AcDbOsnapPointRef
 72
    13
331
120
 73
     2
 91
        0
 40
0.0
 10
0.0
 20
0.0
 30
2.000000000000000E+50
 75
     0
  1
AcDbOsnapPointRef
 72
     1
331
122
 73
     2
 91
        0
 40
1.570796326794896
 10
0.0
 20
0.0
 30
2.000000000000000E+50
 75
     0
  0
LAYOUT
  5
D3
102
{ACAD_XDICTIONARY
360
E79
102
}
102
{ACAD_REACTORS
330
1A
102
}
330
1A
100
AcDbPlotSettings
  1

  2
C:\Documents and Settings\basas\Application Data\Autodesk\AutoCAD 2005\R16.1\enu\plotters\Default Windows System Printer.pc3
  4

  6

 40
0.0
 41
0.0
 42
0.0
 43
0.0
 44
0.0
 45
0.0
 46
0.0
 47
0.0
 48
0.0
 49
0.0
140
0.0
141
0.0
142
1.0
143
1.0
 70
   688
 72
     0
 73
     0
 74
     5
  7

 75
    16
147
1.0
148
0.0
149
0.0
100
AcDbLayout
  1
Layout1
 70
     1
 71
     1
 10
0.0
 20
0.0
 11
12.0
 21
9.0
 12
0.0
 22
0.0
 32
0.0
 14
0.0
 24
0.0
 34
0.0
 15
0.0
 25
0.0
 35
0.0
146
0.0
 13
0.0
 23
0.0
 33
0.0
 16
1.0
 26
0.0
 36
0.0
 17
0.0
 27
1.0
 37
0.0
 76
     0
330
D2
  0
LAYOUT
  5
D7
102
{ACAD_XDICTIONARY
360
E7B
102
}
102
{ACAD_REACTORS
330
1A
102
}
330
1A
100
AcDbPlotSettings
  1

  2
C:\Documents and Settings\basas\Application Data\Autodesk\AutoCAD 2005\R16.1\enu\plotters\Default Windows System Printer.pc3
  4

  6

 40
0.0
 41
0.0
 42
0.0
 43
0.0
 44
0.0
 45
0.0
 46
0.0
 47
0.0
 48
0.0
 49
0.0
140
0.0
141
0.0
142
1.0
143
1.0
 70
   688
 72
     0
 73
     0
 74
     5
  7

 75
    16
147
1.0
148
0.0
149
0.0
100
AcDbLayout
  1
Layout2
 70
     1
 71
     2
 10
0.0
 20
0.0
 11
12.0
 21
9.0
 12
0.0
 22
0.0
 32
0.0
 14
0.0
 24
0.0
 34
0.0
 15
0.0
 25
0.0
 35
0.0
146
0.0
 13
0.0
 23
0.0
 33
0.0
 16
1.0
 26
0.0
 36
0.0
 17
0.0
 27
1.0
 37
0.0
 76
     0
330
D6
  0
LAYOUT
  5
22
102
{ACAD_XDICTIONARY
360
E77
102
}
102
{ACAD_REACTORS
330
1A
102
}
330
1A
100
AcDbPlotSettings
  1

  2
none_device
  4
ISO_A4_(210.00_x_297.00_MM)
  6

 40
7.5
 41
20.0
 42
7.5
 43
20.0
 44
210.0
 45
297.0
 46
11.54999923706054
 47
-13.65000009536743
 48
0.0
 49
0.0
140
0.0
141
0.0
142
1.0
143
8.704084754739808
 70
 11952
 72
     1
 73
     0
 74
     0
  7

 75
     0
147
0.1148885871608098
148
0.0
149
0.0
100
AcDbLayout
  1
Model
 70
     1
 71
     0
 10
0.0
 20
0.0
 11
12.0
 21
9.0
 12
0.0
 22
0.0
 32
0.0
 14
0.0
 24
0.0
 34
0.0
 15
0.0
 25
0.0
 35
0.0
146
0.0
 13
0.0
 23
0.0
 33
0.0
 16
1.0
 26
0.0
 36
0.0
 17
0.0
 27
1.0
 37
0.0
 76
     0
330
1F
1001
ACAD_PSEXT
1000
None
1000
None
1000
Not applicable
1000
The layout will not be plotted unless a new plotter configuration name is selected.
1070
     0
  0
MLINESTYLE
  5
18
102
{ACAD_REACTORS
330
17
102
}
330
17
100
AcDbMlineStyle
  2
STANDARD
 70
     0
  3

 62
   256
 51
90.0
 52
90.0
 71
     2
 49
0.5
 62
   256
  6
BYLAYER
 49
-0.5
 62
   256
  6
BYLAYER
  0
ACDBPLACEHOLDER
  5
F
102
{ACAD_REACTORS
330
E
102
}
330
E
  0
TABLESTYLE
  5
7F
102
{ACAD_REACTORS
330
7E
102
}
330
7E
100
AcDbTableStyle
  3
Standard
 70
     0
 71
     0
 40
1.5
 41
1.5
280
     0
281
     0
  7
Standard
140
4.5
170
     2
 62
     0
 63
     7
283
     0
274
    -2
284
     1
 64
     0
275
    -2
285
     1
 65
     0
276
    -2
286
     1
 66
     0
277
    -2
287
     1
 67
     0
278
    -2
288
     1
 68
     0
279
    -2
289
     1
 69
     0
  7
Standard
140
6.0
170
     5
 62
     0
 63
     7
283
     0
274
    -2
284
     1
 64
     0
275
    -2
285
     1
 65
     0
276
    -2
286
     1
 66
     0
277
    -2
287
     1
 67
     0
278
    -2
288
     1
 68
     0
279
    -2
289
     1
 69
     0
  7
Standard
140
4.5
170
     5
 62
     0
 63
     7
283
     0
274
    -2
284
     1
 64
     0
275
    -2
285
     1
 65
     0
276
    -2
286
     1
 66
     0
277
    -2
287
     1
 67
     0
278
    -2
288
     1
 68
     0
279
    -2
289
     1
 69
     0
  0
DICTIONARYVAR
  5
84
102
{ACAD_REACTORS
330
5E
102
}
330
5E
100
DictionaryVariables
280
     0
  1
STANDARD
  0
DICTIONARYVAR
  5
5F
102
{ACAD_REACTORS
330
5E
102
}
330
5E
100
DictionaryVariables
280
     0
  1
2
  0
DICTIONARYVAR
  5
63
102
{ACAD_REACTORS
330
5E
102
}
330
5E
100
DictionaryVariables
280
     0
  1
1
  0
DICTIONARYVAR
  5
E73
102
{ACAD_REACTORS
330
5E
102
}
330
5E
100
DictionaryVariables
280
     0
  1

  0
DICTIONARY
  5
E79
330
D3
100
AcDbDictionary
280
     1
281
     1
  3
ACAD_XREC_ROUNDTRIP
360
E7A
  0
DICTIONARY
  5
E7B
330
D7
100
AcDbDictionary
280
     1
281
     1
  3
ACAD_XREC_ROUNDTRIP
360
E7C
  0
DICTIONARY
  5
E77
330
22
100
AcDbDictionary
280
     1
281
     1
  3
ACAD_XREC_ROUNDTRIP
360
E78
  0
XRECORD
  5
E7A
102
{ACAD_REACTORS
330
E79
102
}
330
E79
100
AcDbXrecord
280
     1
102
SHADEPLOT
 70
     0
102
SHADEPLOTRESLEVEL
 70
     2
102
SHADEPLOTCUSTOMDPI
 70
   300
  0
XRECORD
  5
E7C
102
{ACAD_REACTORS
330
E7B
102
}
330
E7B
100
AcDbXrecord
280
     1
102
SHADEPLOT
 70
     0
102
SHADEPLOTRESLEVEL
 70
     2
102
SHADEPLOTCUSTOMDPI
 70
   300
  0
XRECORD
  5
E78
102
{ACAD_REACTORS
330
E77
102
}
330
E77
100
AcDbXrecord
280
     1
102
SHADEPLOT
 70
     0
102
SHADEPLOTRESLEVEL
 70
     2
102
SHADEPLOTCUSTOMDPI
 70
   300
  0
ENDSEC
  0
EOF
