  0
SECTION
  2
HEADER
  9
$ACADVER
  1
AC1015
  9
$ACADMAINTVER
 70
    20
  9
$DWGCODEPAGE
  3
ANSI_1252
  9
$INSBASE
 10
0.0
 20
0.0
 30
0.0
  9
$EXTMIN
 10
595.9361358992522
 20
451.3346802481759
 30
-0.0000000004962579
  9
$EXTMAX
 10
758.6296515507641
 20
658.0332591630283
 30
0.0000000000000478
  9
$LIMMIN
 10
0.0
 20
0.0
  9
$LIMMAX
 10
420.0
 20
297.0
  9
$ORTHOMODE
 70
     1
  9
$REGENMODE
 70
     1
  9
$FILLMODE
 70
     1
  9
$QTEXTMODE
 70
     0
  9
$MIRRTEXT
 70
     0
  9
$LTSCALE
 40
1.0
  9
$ATTMODE
 70
     1
  9
$TEXTSIZE
 40
2.5
  9
$TRACEWID
 40
1.0
  9
$TEXTSTYLE
  7
Standard
  9
$CLAYER
  8
0
  9
$CELTYPE
  6
ByLayer
  9
$CECOLOR
 62
   256
  9
$CELTSCALE
 40
1.0
  9
$DISPSILH
 70
     0
  9
$DIMSCALE
 40
1.0
  9
$DIMASZ
 40
3.0
  9
$DIMEXO
 40
10.0
  9
$DIMDLI
 40
10.0
  9
$DIMRND
 40
0.0
  9
$DIMDLE
 40
2.0
  9
$DIMEXE
 40
2.0
  9
$DIMTP
 40
0.0
  9
$DIMTM
 40
3.0
  9
$DIMTXT
 40
3.5
  9
$DIMCEN
 40
2.0
  9
$DIMTSZ
 40
0.0
  9
$DIMTOL
 70
     0
  9
$DIMLIM
 70
     0
  9
$DIMTIH
 70
     0
  9
$DIMTOH
 70
     0
  9
$DIMSE1
 70
     0
  9
$DIMSE2
 70
     0
  9
$DIMTAD
 70
     1
  9
$DIMZIN
 70
     9
  9
$DIMBLK
  1

  9
$DIMASO
 70
     1
  9
$DIMSHO
 70
     1
  9
$DIMPOST
  1

  9
$DIMAPOST
  1

  9
$DIMALT
 70
     0
  9
$DIMALTD
 70
     2
  9
$DIMALTF
 40
0.03937
  9
$DIMLFAC
 40
1.0
  9
$DIMTOFL
 70
     1
  9
$DIMTVP
 40
0.0
  9
$DIMTIX
 70
     0
  9
$DIMSOXD
 70
     0
  9
$DIMSAH
 70
     0
  9
$DIMBLK1
  1

  9
$DIMBLK2
  1

  9
$DIMSTYLE
  2
ISO3098B
  9
$DIMCLRD
 70
     1
  9
$DIMCLRE
 70
     1
  9
$DIMCLRT
 70
     3
  9
$DIMTFAC
 40
0.2857142857142857
  9
$DIMGAP
 40
1.199999999999999
  9
$DIMJUST
 70
     0
  9
$DIMSD1
 70
     0
  9
$DIMSD2
 70
     0
  9
$DIMTOLJ
 70
     1
  9
$DIMTZIN
 70
     9
  9
$DIMALTZ
 70
     1
  9
$DIMALTTZ
 70
     1
  9
$DIMUPT
 70
     0
  9
$DIMDEC
 70
     2
  9
$DIMTDEC
 70
     2
  9
$DIMALTU
 70
     2
  9
$DIMALTTD
 70
     2
  9
$DIMTXSTY
  7
ISO3098B
  9
$DIMAUNIT
 70
     0
  9
$DIMADEC
 70
     0
  9
$DIMALTRND
 40
0.0
  9
$DIMAZIN
 70
     0
  9
$DIMDSEP
 70
    46
  9
$DIMATFIT
 70
     3
  9
$DIMFRAC
 70
     0
  9
$DIMLDRBLK
  1

  9
$DIMLUNIT
 70
     2
  9
$DIMLWD
 70
    -2
  9
$DIMLWE
 70
    -2
  9
$DIMTMOVE
 70
     0
  9
$LUNITS
 70
     2
  9
$LUPREC
 70
     4
  9
$SKETCHINC
 40
1.0
  9
$FILLETRAD
 40
6.0
  9
$AUNITS
 70
     0
  9
$AUPREC
 70
     0
  9
$MENU
  1
.
  9
$ELEVATION
 40
0.0
  9
$PELEVATION
 40
0.0
  9
$THICKNESS
 40
0.0
  9
$LIMCHECK
 70
     0
  9
$CHAMFERA
 40
0.0
  9
$CHAMFERB
 40
0.0
  9
$CHAMFERC
 40
0.0
  9
$CHAMFERD
 40
0.0
  9
$SKPOLY
 70
     0
  9
$TDCREATE
 40
2454571.574666042
  9
$TDUCREATE
 40
2454571.157999375
  9
$TDUPDATE
 40
2454651.425055683
  9
$TDUUPDATE
 40
2454651.008389016
  9
$TDINDWG
 40
0.1808904630
  9
$TDUSRTIMER
 40
0.1808904630
  9
$USRTIMER
 70
     1
  9
$ANGBASE
 50
0.0
  9
$ANGDIR
 70
     0
  9
$PDMODE
 70
     0
  9
$PDSIZE
 40
0.0
  9
$PLINEWID
 40
0.0
  9
$SPLFRAME
 70
     0
  9
$SPLINETYPE
 70
     6
  9
$SPLINESEGS
 70
     8
  9
$HANDSEED
  5
9E3
  9
$SURFTAB1
 70
     6
  9
$SURFTAB2
 70
     6
  9
$SURFTYPE
 70
     6
  9
$SURFU
 70
     6
  9
$SURFV
 70
     6
  9
$UCSBASE
  2

  9
$UCSNAME
  2

  9
$UCSORG
 10
0.0
 20
0.0
 30
0.0
  9
$UCSXDIR
 10
1.0
 20
0.0
 30
0.0
  9
$UCSYDIR
 10
0.0
 20
1.0
 30
0.0
  9
$UCSORTHOREF
  2

  9
$UCSORTHOVIEW
 70
     0
  9
$UCSORGTOP
 10
0.0
 20
0.0
 30
0.0
  9
$UCSORGBOTTOM
 10
0.0
 20
0.0
 30
0.0
  9
$UCSORGLEFT
 10
0.0
 20
0.0
 30
0.0
  9
$UCSORGRIGHT
 10
0.0
 20
0.0
 30
0.0
  9
$UCSORGFRONT
 10
0.0
 20
0.0
 30
0.0
  9
$UCSORGBACK
 10
0.0
 20
0.0
 30
0.0
  9
$PUCSBASE
  2

  9
$PUCSNAME
  2

  9
$PUCSORG
 10
0.0
 20
0.0
 30
0.0
  9
$PUCSXDIR
 10
1.0
 20
0.0
 30
0.0
  9
$PUCSYDIR
 10
0.0
 20
1.0
 30
0.0
  9
$PUCSORTHOREF
  2

  9
$PUCSORTHOVIEW
 70
     0
  9
$PUCSORGTOP
 10
0.0
 20
0.0
 30
0.0
  9
$PUCSORGBOTTOM
 10
0.0
 20
0.0
 30
0.0
  9
$PUCSORGLEFT
 10
0.0
 20
0.0
 30
0.0
  9
$PUCSORGRIGHT
 10
0.0
 20
0.0
 30
0.0
  9
$PUCSORGFRONT
 10
0.0
 20
0.0
 30
0.0
  9
$PUCSORGBACK
 10
0.0
 20
0.0
 30
0.0
  9
$USERI1
 70
     0
  9
$USERI2
 70
     0
  9
$USERI3
 70
     0
  9
$USERI4
 70
     0
  9
$USERI5
 70
     0
  9
$USERR1
 40
0.0
  9
$USERR2
 40
0.0
  9
$USERR3
 40
0.0
  9
$USERR4
 40
0.0
  9
$USERR5
 40
0.0
  9
$WORLDVIEW
 70
     1
  9
$SHADEDGE
 70
     3
  9
$SHADEDIF
 70
    70
  9
$TILEMODE
 70
     1
  9
$MAXACTVP
 70
    64
  9
$PINSBASE
 10
0.0
 20
0.0
 30
0.0
  9
$PLIMCHECK
 70
     0
  9
$PEXTMIN
 10
0.0
 20
0.0
 30
0.0
  9
$PEXTMAX
 10
0.0
 20
0.0
 30
0.0
  9
$PLIMMIN
 10
0.0
 20
0.0
  9
$PLIMMAX
 10
12.0
 20
9.0
  9
$UNITMODE
 70
     0
  9
$VISRETAIN
 70
     1
  9
$PLINEGEN
 70
     0
  9
$PSLTSCALE
 70
     1
  9
$TREEDEPTH
 70
  3020
  9
$CMLSTYLE
  2
Standard
  9
$CMLJUST
 70
     0
  9
$CMLSCALE
 40
20.0
  9
$PROXYGRAPHICS
 70
     1
  9
$MEASUREMENT
 70
     1
  9
$CELWEIGHT
370
    -1
  9
$ENDCAPS
280
     0
  9
$JOINSTYLE
280
     0
  9
$LWDISPLAY
290
     0
  9
$INSUNITS
 70
     4
  9
$HYPERLINKBASE
  1

  9
$STYLESHEET
  1

  9
$XEDIT
290
     1
  9
$CEPSNTYPE
380
     0
  9
$PSTYLEMODE
290
     1
  9
$FINGERPRINTGUID
  2
{51A37FD9-39D5-49B8-B1D6-07EF9C98186C}
  9
$VERSIONGUID
  2
{157A204A-EE69-4426-A1F1-BD5151A1A6E8}
  9
$EXTNAMES
290
     1
  9
$PSVPSCALE
 40
0.0
  9
$OLESTARTUP
290
     0
  0
ENDSEC
  0
SECTION
  2
CLASSES
  0
CLASS
  1
ACDBDICTIONARYWDFLT
  2
AcDbDictionaryWithDefault
  3
ObjectDBX Classes
 90
        0
280
     0
281
     0
  0
CLASS
  1
ACDBPLACEHOLDER
  2
AcDbPlaceHolder
  3
ObjectDBX Classes
 90
        0
280
     0
281
     0
  0
CLASS
  1
LAYOUT
  2
AcDbLayout
  3
ObjectDBX Classes
 90
        0
280
     0
281
     0
  0
CLASS
  1
DICTIONARYVAR
  2
AcDbDictionaryVar
  3
ObjectDBX Classes
 90
        0
280
     0
281
     0
  0
CLASS
  1
TABLESTYLE
  2
AcDbTableStyle
  3
ObjectDBX Classes
 90
     4095
280
     0
281
     0
  0
CLASS
  1
MATERIAL
  2
AcDbMaterial
  3
ObjectDBX Classes
 90
     1153
280
     0
281
     0
  0
CLASS
  1
VISUALSTYLE
  2
AcDbVisualStyle
  3
ObjectDBX Classes
 90
     4095
280
     0
281
     0
  0
CLASS
  1
SCALE
  2
AcDbScale
  3
ObjectDBX Classes
 90
     1153
280
     0
281
     0
  0
CLASS
  1
MLEADERSTYLE
  2
AcDbMLeaderStyle
  3
ACDB_MLEADERSTYLE_CLASS
 90
     4095
280
     0
281
     0
  0
CLASS
  1
CELLSTYLEMAP
  2
AcDbCellStyleMap
  3
ObjectDBX Classes
 90
     1152
280
     0
281
     0
  0
CLASS
  1
ACAD_EVALUATION_GRAPH
  2
AcDbEvalGraph
  3
ObjectDBX Classes
 90
    33921
280
     0
281
     0
  0
CLASS
  1
ACAECUSTOBJ
  2
AcAeEditorObj
  3
AcAeEditorObj
 90
    33792
280
     0
281
     0
  0
CLASS
  1
SORTENTSTABLE
  2
AcDbSortentsTable
  3
ObjectDBX Classes
 90
        0
280
     0
281
     0
  0
CLASS
  1
ACDB_DYNAMICBLOCKPURGEPREVENTER_VERSION
  2
AcDbDynamicBlockPurgePreventer
  3
ObjectDBX Classes
 90
    33921
280
     0
281
     0
  0
CLASS
  1
DIMASSOC
  2
AcDbDimAssoc
  3
"AcDbDimAssoc|Product Desc:     AcDim ARX App For Dimension|Company:          Autodesk, Inc.|WEB Address:      www.autodesk.com"
 90
        0
280
     0
281
     0
  0
ENDSEC
  0
SECTION
  2
TABLES
  0
TABLE
  2
VPORT
  5
8
330
0
100
AcDbSymbolTable
 70
     1
  0
VPORT
  5
EA
330
8
100
AcDbSymbolTableRecord
100
AcDbViewportTableRecord
  2
*Active
 70
     0
 10
0.0
 20
0.0
 11
1.0
 21
1.0
 12
677.276632642804
 22
554.6598610246822
 13
0.0
 23
0.0
 14
10.0
 24
10.0
 15
10.0
 25
10.0
 16
0.0
 26
0.0
 36
1.0
 17
0.0
 27
0.0
 37
0.0
 40
208.3402016867108
 41
1.569961489088575
 42
50.0
 43
0.0
 44
0.0
 50
0.0
 51
0.0
 71
     0
 72
  1000
 73
     1
 74
     3
 75
     0
 76
     0
 77
     0
 78
     0
281
     0
 65
     1
110
0.0
120
0.0
130
0.0
111
1.0
121
0.0
131
0.0
112
0.0
122
1.0
132
0.0
 79
     0
146
0.0
  0
ENDTAB
  0
TABLE
  2
LTYPE
  5
5
330
0
100
AcDbSymbolTable
 70
     1
  0
LTYPE
  5
14
330
5
100
AcDbSymbolTableRecord
100
AcDbLinetypeTableRecord
  2
ByBlock
 70
     0
  3

 72
    65
 73
     0
 40
0.0
  0
LTYPE
  5
15
330
5
100
AcDbSymbolTableRecord
100
AcDbLinetypeTableRecord
  2
ByLayer
 70
     0
  3

 72
    65
 73
     0
 40
0.0
  0
LTYPE
  5
16
330
5
100
AcDbSymbolTableRecord
100
AcDbLinetypeTableRecord
  2
Continuous
 70
     0
  3
Solid line
 72
    65
 73
     0
 40
0.0
  0
ENDTAB
  0
TABLE
  2
LAYER
  5
2
102
{ACAD_XDICTIONARY
360
1D3
102
}
330
0
100
AcDbSymbolTable
 70
     2
  0
LAYER
  5
10
102
{ACAD_XDICTIONARY
360
13C
102
}
330
2
100
AcDbSymbolTableRecord
100
AcDbLayerTableRecord
  2
0
 70
     0
 62
     7
  6
Continuous
370
    -3
390
F
  0
LAYER
  5
3F0
330
2
100
AcDbSymbolTableRecord
100
AcDbLayerTableRecord
  2
DEFPOINTS
 70
     0
 62
     7
  6
Continuous
290
     0
370
    -3
390
F
  0
ENDTAB
  0
TABLE
  2
STYLE
  5
3
330
0
100
AcDbSymbolTable
 70
     2
  0
STYLE
  5
11
330
3
100
AcDbSymbolTableRecord
100
AcDbTextStyleTableRecord
  2
Standard
 70
     0
 40
0.0
 41
1.0
 50
0.0
 71
     0
 42
2.5
  3
txt
  4

  0
STYLE
  5
1AF
330
3
100
AcDbSymbolTableRecord
100
AcDbTextStyleTableRecord
  2
ISO3098B
 70
     0
 40
0.0
 41
1.0
 50
0.0
 71
     0
 42
3.5
  3
ISO3098B.SHX
  4

  0
ENDTAB
  0
TABLE
  2
VIEW
  5
6
330
0
100
AcDbSymbolTable
 70
     0
  0
ENDTAB
  0
TABLE
  2
UCS
  5
7
330
0
100
AcDbSymbolTable
 70
     0
  0
ENDTAB
  0
TABLE
  2
APPID
  5
9
330
0
100
AcDbSymbolTable
 70
    13
  0
APPID
  5
12
330
9
100
AcDbSymbolTableRecord
100
AcDbRegAppTableRecord
  2
ACAD
 70
     0
  0
APPID
  5
9E
330
9
100
AcDbSymbolTableRecord
100
AcDbRegAppTableRecord
  2
ACAD_PSEXT
 70
     0
  0
APPID
  5
133
330
9
100
AcDbSymbolTableRecord
100
AcDbRegAppTableRecord
  2
AcadAnnoPO
 70
     0
  0
APPID
  5
134
330
9
100
AcDbSymbolTableRecord
100
AcDbRegAppTableRecord
  2
AcadAnnotative
 70
     0
  0
APPID
  5
135
330
9
100
AcDbSymbolTableRecord
100
AcDbRegAppTableRecord
  2
ACAD_DSTYLE_DIMJAG
 70
     0
  0
APPID
  5
136
330
9
100
AcDbSymbolTableRecord
100
AcDbRegAppTableRecord
  2
ACAD_DSTYLE_DIMTALN
 70
     0
  0
APPID
  5
165
330
9
100
AcDbSymbolTableRecord
100
AcDbRegAppTableRecord
  2
ACAD_MLEADERVER
 70
     0
  0
APPID
  5
1CE
330
9
100
AcDbSymbolTableRecord
100
AcDbRegAppTableRecord
  2
AcAecLayerStandard
 70
     0
  0
APPID
  5
21A
330
9
100
AcDbSymbolTableRecord
100
AcDbRegAppTableRecord
  2
ACAUTHENVIRON
 70
     0
  0
APPID
  5
263
330
9
100
AcDbSymbolTableRecord
100
AcDbRegAppTableRecord
  2
AcDbDynamicBlockTrueName
 70
     0
  0
APPID
  5
264
330
9
100
AcDbSymbolTableRecord
100
AcDbRegAppTableRecord
  2
AcDbDynamicBlockGUID
 70
     0
  0
APPID
  5
266
330
9
100
AcDbSymbolTableRecord
100
AcDbRegAppTableRecord
  2
AcDbBlockRepETag
 70
     0
  0
APPID
  5
3C2
330
9
100
AcDbSymbolTableRecord
100
AcDbRegAppTableRecord
  2
ACAD_EXEMPT_FROM_CAD_STANDARDS
 70
     0
  0
ENDTAB
  0
TABLE
  2
DIMSTYLE
  5
A
330
0
100
AcDbSymbolTable
 70
     1
100
AcDbDimStyleTable
 71
     1
340
1B0
  0
DIMSTYLE
105
1B0
102
{ACAD_REACTORS
330
4EA
330
50B
330
535
330
558
330
588
330
5BB
330
7E2
102
}
330
A
100
AcDbSymbolTableRecord
100
AcDbDimStyleTableRecord
  2
ISO3098B
 70
     0
 41
3.0
 42
10.0
 43
10.0
 44
2.0
 46
2.0
 48
3.0
 73
     0
 74
     0
 77
     1
 78
     9
140
3.5
141
2.0
143
0.03937
146
0.2857142857142857
147
1.199999999999999
172
     1
176
     1
177
     1
178
     3
271
     2
272
     2
284
     9
285
     1
286
     1
340
1AF
1001
ACAD_DSTYLE_DIMJAG
1070
   388
1040
1.5
1001
ACAD_DSTYLE_DIMTALN
1070
   392
1070
     0
  0
ENDTAB
  0
TABLE
  2
BLOCK_RECORD
  5
1
330
0
100
AcDbSymbolTable
 70
     7
  0
BLOCK_RECORD
  5
1F
102
{ACAD_XDICTIONARY
360
3B0
102
}
330
1
100
AcDbSymbolTableRecord
100
AcDbBlockTableRecord
  2
*Model_Space
340
22
  0
BLOCK_RECORD
  5
D2
330
1
100
AcDbSymbolTableRecord
100
AcDbBlockTableRecord
  2
*Paper_Space
340
D3
  0
BLOCK_RECORD
  5
4EB
330
1
100
AcDbSymbolTableRecord
100
AcDbBlockTableRecord
  2
*D0
340
0
  0
BLOCK_RECORD
  5
50C
330
1
100
AcDbSymbolTableRecord
100
AcDbBlockTableRecord
  2
*D1
340
0
  0
BLOCK_RECORD
  5
536
330
1
100
AcDbSymbolTableRecord
100
AcDbBlockTableRecord
  2
*D2
340
0
  0
BLOCK_RECORD
  5
559
330
1
100
AcDbSymbolTableRecord
100
AcDbBlockTableRecord
  2
*D3
340
0
  0
BLOCK_RECORD
  5
589
330
1
100
AcDbSymbolTableRecord
100
AcDbBlockTableRecord
  2
*D4
340
0
  0
BLOCK_RECORD
  5
5BC
330
1
100
AcDbSymbolTableRecord
100
AcDbBlockTableRecord
  2
*D5
340
0
  0
BLOCK_RECORD
  5
7E3
330
1
100
AcDbSymbolTableRecord
100
AcDbBlockTableRecord
  2
*D6
340
0
  0
ENDTAB
  0
ENDSEC
  0
SECTION
  2
BLOCKS
  0
BLOCK
  5
20
330
1F
100
AcDbEntity
  8
0
100
AcDbBlockBegin
  2
*Model_Space
 70
     0
 10
0.0
 20
0.0
 30
0.0
  3
*Model_Space
  1

  0
ENDBLK
  5
21
330
1F
100
AcDbEntity
  8
0
100
AcDbBlockEnd
  0
BLOCK
  5
D4
330
D2
100
AcDbEntity
 67
     1
  8
0
100
AcDbBlockBegin
  2
*Paper_Space
 70
     0
 10
0.0
 20
0.0
 30
0.0
  3
*Paper_Space
  1

  0
ENDBLK
  5
D5
330
D2
100
AcDbEntity
 67
     1
  8
0
100
AcDbBlockEnd
  0
BLOCK
  5
4EC
330
4EB
100
AcDbEntity
  8
0
100
AcDbBlockBegin
  2
*D0
 70
     1
 10
0.0
 20
0.0
 30
0.0
  3
*D0
  1

  0
LINE
  5
9B6
330
4EB
100
AcDbEntity
  8
0
 62
     1
370
    -2
100
AcDbLine
 10
690.6169359721493
 20
473.0489874937783
 30
0.0
 11
690.6169359721493
 21
451.3346802481759
 31
0.0
  0
LINE
  5
9B7
330
4EB
100
AcDbEntity
  8
0
 62
     1
370
    -2
100
AcDbLine
 10
620.6169359721493
 20
475.654406894538
 30
0.0
 11
620.6169359721493
 21
451.3346802481759
 31
0.0
  0
LINE
  5
9B8
330
4EB
100
AcDbEntity
  8
0
 62
     1
370
    -2
100
AcDbLine
 10
687.6169359721493
 20
453.334680248176
 30
0.0
 11
623.6169359721493
 21
453.334680248176
 31
0.0
  0
SOLID
  5
9B9
330
4EB
100
AcDbEntity
  8
0
 62
     1
100
AcDbTrace
 10
687.6169359721493
 20
453.8346802481759
 30
0.0
 11
687.6169359721493
 21
452.834680248176
 31
0.0
 12
690.6169359721493
 22
453.334680248176
 32
0.0
 13
690.6169359721493
 23
453.334680248176
 33
0.0
  0
SOLID
  5
9BA
330
4EB
100
AcDbEntity
  8
0
 62
     1
100
AcDbTrace
 10
623.6169359721493
 20
453.8346802481759
 30
0.0
 11
623.6169359721493
 21
452.834680248176
 31
0.0
 12
620.6169359721493
 22
453.334680248176
 32
0.0
 13
620.6169359721493
 23
453.334680248176
 33
0.0
  0
MTEXT
  5
9BB
330
4EB
100
AcDbEntity
  8
0
 62
     3
100
AcDbMText
 10
655.6169359721494
 20
456.2846802481759
 30
0.0
 40
3.5
 41
0.0
 71
     5
 72
     1
  1
\A1;70 Max.
  7
ISO3098B
 73
     1
 44
1.0
1001
ACAD
1000
MTEXTBEGIN
1070
    73
1070
     1
1070
    44
1040
1.0
1070
    74
1070
     0
1000
MTEXTEND
  0
POINT
  5
9BC
330
4EB
100
AcDbEntity
  8
DEFPOINTS
 62
     0
100
AcDbPoint
 10
690.6169359721493
 20
483.0489874937783
 30
-0.0000000000000303
  0
POINT
  5
9BD
330
4EB
100
AcDbEntity
  8
DEFPOINTS
 62
     0
100
AcDbPoint
 10
620.6169359721493
 20
485.654406894538
 30
-0.0000000000000303
  0
POINT
  5
9BE
330
4EB
100
AcDbEntity
  8
DEFPOINTS
 62
     0
100
AcDbPoint
 10
620.6169359721493
 20
453.334680248176
 30
0.0
  0
ENDBLK
  5
4ED
330
4EB
100
AcDbEntity
  8
0
100
AcDbBlockEnd
  0
BLOCK
  5
50D
330
50C
100
AcDbEntity
  8
0
100
AcDbBlockBegin
  2
*D1
 70
     1
 10
0.0
 20
0.0
 30
0.0
  3
*D1
  1

  0
LINE
  5
980
330
50C
100
AcDbEntity
  8
0
 62
     1
370
    -2
100
AcDbLine
 10
688.9169359721493
 20
631.6489874937783
 30
0.0
 11
688.9169359721493
 21
655.5065898214611
 31
0.0
  0
LINE
  5
981
330
50C
100
AcDbEntity
  8
0
 62
     1
370
    -2
100
AcDbLine
 10
740.9169359721492
 20
629.6489874937781
 30
0.0
 11
740.9169359721492
 21
655.5065898214611
 31
0.0
  0
LINE
  5
982
330
50C
100
AcDbEntity
  8
0
 62
     1
370
    -2
100
AcDbLine
 10
691.9169359721493
 20
653.5065898214611
 30
0.0
 11
737.9169359721493
 21
653.5065898214611
 31
0.0
  0
SOLID
  5
983
330
50C
100
AcDbEntity
  8
0
 62
     1
100
AcDbTrace
 10
691.9169359721493
 20
654.0065898214611
 30
0.0
 11
691.9169359721493
 21
653.0065898214611
 31
0.0
 12
688.9169359721493
 22
653.5065898214611
 32
0.0
 13
688.9169359721493
 23
653.5065898214611
 33
0.0
  0
SOLID
  5
984
330
50C
100
AcDbEntity
  8
0
 62
     1
100
AcDbTrace
 10
737.9169359721493
 20
654.0065898214611
 30
0.0
 11
737.9169359721493
 21
653.0065898214611
 31
0.0
 12
740.9169359721492
 22
653.5065898214611
 32
0.0
 13
740.9169359721492
 23
653.5065898214611
 33
0.0
  0
MTEXT
  5
985
330
50C
100
AcDbEntity
  8
0
 62
     3
100
AcDbMText
 10
714.9169359721493
 20
656.4565898214612
 30
0.0
 40
3.5
 41
0.0
 71
     5
 72
     1
  1
\A1;52 Max.
  7
ISO3098B
 73
     1
 44
1.0
1001
ACAD
1000
MTEXTBEGIN
1070
    73
1070
     1
1070
    44
1040
1.0
1070
    74
1070
     0
1000
MTEXTEND
  0
POINT
  5
986
330
50C
100
AcDbEntity
  8
DEFPOINTS
 62
     0
100
AcDbPoint
 10
688.9169359721493
 20
621.6489874937783
 30
0.0
  0
POINT
  5
987
330
50C
100
AcDbEntity
  8
DEFPOINTS
 62
     0
100
AcDbPoint
 10
740.9169359721492
 20
619.6489874937781
 30
-0.0000000000000009
  0
POINT
  5
988
330
50C
100
AcDbEntity
  8
DEFPOINTS
 62
     0
100
AcDbPoint
 10
740.9169359721492
 20
653.5065898214611
 30
0.0
  0
ENDBLK
  5
50E
330
50C
100
AcDbEntity
  8
0
100
AcDbBlockEnd
  0
BLOCK
  5
537
330
536
100
AcDbEntity
  8
0
100
AcDbBlockBegin
  2
*D2
 70
     1
 10
0.0
 20
0.0
 30
0.0
  3
*D2
  1

  0
LINE
  5
989
330
536
100
AcDbEntity
  8
0
 62
     1
370
    -2
100
AcDbLine
 10
618.8211755645296
 20
476.3489874937784
 30
0.0
 11
598.4628052408197
 21
476.3489874937784
 31
0.0
  0
LINE
  5
98A
330
536
100
AcDbEntity
  8
0
 62
     1
370
    -2
100
AcDbLine
 10
685.6169359721493
 20
628.3489874937783
 30
0.0
 11
598.4628052408197
 21
628.3489874937783
 31
0.0
  0
LINE
  5
98B
330
536
100
AcDbEntity
  8
0
 62
     1
370
    -2
100
AcDbLine
 10
600.4628052408198
 20
479.3489874937783
 30
0.0
 11
600.4628052408198
 21
625.3489874937784
 31
0.0
  0
SOLID
  5
98C
330
536
100
AcDbEntity
  8
0
 62
     1
100
AcDbTrace
 10
599.9628052408198
 20
479.3489874937783
 30
0.0
 11
600.9628052408197
 21
479.3489874937783
 31
0.0
 12
600.4628052408198
 22
476.3489874937784
 32
0.0
 13
600.4628052408198
 23
476.3489874937784
 33
0.0
  0
SOLID
  5
98D
330
536
100
AcDbEntity
  8
0
 62
     1
100
AcDbTrace
 10
599.9628052408198
 20
625.3489874937784
 30
0.0
 11
600.9628052408197
 21
625.3489874937784
 31
0.0
 12
600.4628052408198
 22
628.3489874937783
 32
0.0
 13
600.4628052408198
 23
628.3489874937783
 33
0.0
  0
MTEXT
  5
98E
330
536
100
AcDbEntity
  8
0
 62
     3
100
AcDbMText
 10
597.5128052408195
 20
552.3489874937784
 30
0.0
 40
3.5
 41
0.0
 71
     5
 72
     1
  1
\A1;152 O/A Nominal
  7
ISO3098B
 11
0.0000000000000001
 21
1.0
 31
0.0
 73
     1
 44
1.0
1001
ACAD
1000
MTEXTBEGIN
1070
    73
1070
     1
1070
    44
1040
1.0
1070
    74
1070
     0
1000
MTEXTEND
  0
POINT
  5
98F
330
536
100
AcDbEntity
  8
DEFPOINTS
 62
     0
100
AcDbPoint
 10
628.8211755645296
 20
476.3489874937784
 30
0.0
  0
POINT
  5
990
330
536
100
AcDbEntity
  8
DEFPOINTS
 62
     0
100
AcDbPoint
 10
695.6169359721493
 20
628.3489874937783
 30
0.0000000000000478
  0
POINT
  5
991
330
536
100
AcDbEntity
  8
DEFPOINTS
 62
     0
100
AcDbPoint
 10
600.4628052408198
 20
628.3489874937783
 30
0.0
  0
ENDBLK
  5
538
330
536
100
AcDbEntity
  8
0
100
AcDbBlockEnd
  0
BLOCK
  5
55A
330
559
100
AcDbEntity
  8
0
100
AcDbBlockBegin
  2
*D3
 70
     1
 10
0.0
 20
0.0
 30
0.0
  3
*D3
  1

  0
LINE
  5
992
330
559
100
AcDbEntity
  8
0
 62
     1
370
    -2
100
AcDbLine
 10
693.9169359721493
 20
476.3489874937784
 30
0.0
 11
758.6296515507641
 21
476.3489874937784
 31
0.0
  0
LINE
  5
993
330
559
100
AcDbEntity
  8
0
 62
     1
370
    -2
100
AcDbLine
 10
742.2169359721491
 20
609.5489874937782
 30
0.0
 11
758.6296515507641
 21
609.5489874937782
 31
0.0
  0
LINE
  5
994
330
559
100
AcDbEntity
  8
0
 62
     1
370
    -2
100
AcDbLine
 10
756.6296515507641
 20
479.3489874937783
 30
0.0
 11
756.6296515507641
 21
606.5489874937782
 31
0.0
  0
SOLID
  5
995
330
559
100
AcDbEntity
  8
0
 62
     1
100
AcDbTrace
 10
756.1296515507641
 20
479.3489874937783
 30
0.0
 11
757.1296515507641
 21
479.3489874937783
 31
0.0
 12
756.6296515507641
 22
476.3489874937784
 32
0.0
 13
756.6296515507641
 23
476.3489874937784
 33
0.0
  0
SOLID
  5
996
330
559
100
AcDbEntity
  8
0
 62
     1
100
AcDbTrace
 10
756.1296515507641
 20
606.5489874937782
 30
0.0
 11
757.1296515507641
 21
606.5489874937782
 31
0.0
 12
756.6296515507641
 22
609.5489874937782
 32
0.0
 13
756.6296515507641
 23
609.5489874937782
 33
0.0
  0
MTEXT
  5
997
330
559
100
AcDbEntity
  8
0
 62
     3
100
AcDbMText
 10
753.6796515507639
 20
542.9489874937784
 30
0.0
 40
3.5
 41
0.0
 71
     5
 72
     1
  1
\A1;133 Min.
  7
ISO3098B
 11
0.0000000000000001
 21
1.0
 31
0.0
 73
     1
 44
1.0
1001
ACAD
1000
MTEXTBEGIN
1070
    73
1070
     1
1070
    44
1040
1.0
1070
    74
1070
     0
1000
MTEXTEND
  0
POINT
  5
998
330
559
100
AcDbEntity
  8
DEFPOINTS
 62
     0
100
AcDbPoint
 10
683.9169359721493
 20
476.3489874937784
 30
0.0
  0
POINT
  5
999
330
559
100
AcDbEntity
  8
DEFPOINTS
 62
     0
100
AcDbPoint
 10
732.2169359721491
 20
609.5489874937782
 30
-0.0000000000012742
  0
POINT
  5
99A
330
559
100
AcDbEntity
  8
DEFPOINTS
 62
     0
100
AcDbPoint
 10
756.6296515507641
 20
609.5489874937782
 30
0.0
  0
ENDBLK
  5
55B
330
559
100
AcDbEntity
  8
0
100
AcDbBlockEnd
  0
BLOCK
  5
58A
330
589
100
AcDbEntity
  8
0
100
AcDbBlockBegin
  2
*D4
 70
     1
 10
0.0
 20
0.0
 30
0.0
  3
*D4
  1

  0
LINE
  5
99B
330
589
100
AcDbEntity
  8
0
 62
     1
370
    -2
100
AcDbLine
 10
633.9169359721494
 20
504.2578889401499
 30
0.0
 11
633.9169359721494
 21
520.5566175180479
 31
0.0
  0
LINE
  5
99C
330
589
100
AcDbEntity
  8
0
 62
     1
370
    -2
100
AcDbLine
 10
688.9169359721495
 20
511.9284921376769
 30
0.0
 11
688.9169359721495
 21
520.5566175180479
 31
0.0
  0
LINE
  5
99D
330
589
100
AcDbEntity
  8
0
 62
     1
370
    -2
100
AcDbLine
 10
636.9169359721494
 20
518.5566175180479
 30
0.0
 11
685.9169359721495
 21
518.5566175180479
 31
0.0
  0
SOLID
  5
99E
330
589
100
AcDbEntity
  8
0
 62
     1
100
AcDbTrace
 10
636.9169359721494
 20
519.0566175180479
 30
0.0
 11
636.9169359721494
 21
518.0566175180479
 31
0.0
 12
633.9169359721494
 22
518.5566175180479
 32
0.0
 13
633.9169359721494
 23
518.5566175180479
 33
0.0
  0
SOLID
  5
99F
330
589
100
AcDbEntity
  8
0
 62
     1
100
AcDbTrace
 10
685.9169359721495
 20
519.0566175180479
 30
0.0
 11
685.9169359721495
 21
518.0566175180479
 31
0.0
 12
688.9169359721495
 22
518.5566175180479
 32
0.0
 13
688.9169359721495
 23
518.5566175180479
 33
0.0
  0
MTEXT
  5
9A0
330
589
100
AcDbEntity
  8
0
 62
     3
100
AcDbMText
 10
661.4169359721495
 20
521.506617518048
 30
0.0
 40
3.5
 41
0.0
 71
     5
 72
     1
  1
\A1;55 Min.
  7
ISO3098B
 73
     1
 44
1.0
1001
ACAD
1000
MTEXTBEGIN
1070
    73
1070
     1
1070
    44
1040
1.0
1070
    74
1070
     0
1000
MTEXTEND
  0
POINT
  5
9A1
330
589
100
AcDbEntity
  8
DEFPOINTS
 62
     0
100
AcDbPoint
 10
633.9169359721494
 20
494.2578889401499
 30
0.0000000000000072
  0
POINT
  5
9A2
330
589
100
AcDbEntity
  8
DEFPOINTS
 62
     0
100
AcDbPoint
 10
688.9169359721495
 20
501.9284921376768
 30
0.0000000000000098
  0
POINT
  5
9A3
330
589
100
AcDbEntity
  8
DEFPOINTS
 62
     0
100
AcDbPoint
 10
688.9169359721495
 20
518.5566175180479
 30
0.0
  0
ENDBLK
  5
58B
330
589
100
AcDbEntity
  8
0
100
AcDbBlockEnd
  0
BLOCK
  5
5BD
330
5BC
100
AcDbEntity
  8
0
100
AcDbBlockBegin
  2
*D5
 70
     1
 10
0.0
 20
0.0
 30
0.0
  3
*D5
  1

  0
LINE
  5
9A4
330
5BC
100
AcDbEntity
  8
0
 62
     1
370
    -2
100
AcDbLine
 10
685.6169359721493
 20
628.3489874937783
 30
0.0
 11
612.8810181977818
 21
628.3489874937783
 31
0.0
  0
LINE
  5
9A5
330
5BC
100
AcDbEntity
  8
0
 62
     1
370
    -2
100
AcDbLine
 10
623.1828031959243
 20
495.7912020415327
 30
0.0
 11
612.8810181977818
 21
495.7912020415327
 31
0.0
  0
LINE
  5
9A6
330
5BC
100
AcDbEntity
  8
0
 62
     1
370
    -2
100
AcDbLine
 10
614.8810181977818
 20
625.3489874937784
 30
0.0
 11
614.8810181977818
 21
498.7912020415327
 31
0.0
  0
SOLID
  5
9A7
330
5BC
100
AcDbEntity
  8
0
 62
     1
100
AcDbTrace
 10
614.3810181977818
 20
625.3489874937784
 30
0.0
 11
615.3810181977818
 21
625.3489874937784
 31
0.0
 12
614.8810181977818
 22
628.3489874937783
 32
0.0
 13
614.8810181977818
 23
628.3489874937783
 33
0.0
  0
SOLID
  5
9A8
330
5BC
100
AcDbEntity
  8
0
 62
     1
100
AcDbTrace
 10
614.3810181977818
 20
498.7912020415327
 30
0.0
 11
615.3810181977818
 21
498.7912020415327
 31
0.0
 12
614.8810181977818
 22
495.7912020415327
 32
0.0
 13
614.8810181977818
 23
495.7912020415327
 33
0.0
  0
MTEXT
  5
9A9
330
5BC
100
AcDbEntity
  8
0
 62
     3
100
AcDbMText
 10
611.9310181977816
 20
562.0700947676557
 30
0.0
 40
3.5
 41
0.0
 71
     5
 72
     1
  1
\A1;132 Min.
  7
ISO3098B
 11
0.0000000000000001
 21
1.0
 31
0.0
 73
     1
 44
1.0
1001
ACAD
1000
MTEXTBEGIN
1070
    73
1070
     1
1070
    44
1040
1.0
1070
    74
1070
     0
1000
MTEXTEND
  0
POINT
  5
9AA
330
5BC
100
AcDbEntity
  8
DEFPOINTS
 62
     0
100
AcDbPoint
 10
695.6169359721493
 20
628.3489874937783
 30
0.0
  0
POINT
  5
9AB
330
5BC
100
AcDbEntity
  8
DEFPOINTS
 62
     0
100
AcDbPoint
 10
633.1828031959243
 20
495.7912020415327
 30
-0.0000000000000021
  0
POINT
  5
9AC
330
5BC
100
AcDbEntity
  8
DEFPOINTS
 62
     0
100
AcDbPoint
 10
614.8810181977818
 20
495.7912020415327
 30
0.0
  0
ENDBLK
  5
5BE
330
5BC
100
AcDbEntity
  8
0
100
AcDbBlockEnd
  0
BLOCK
  5
7E4
330
7E3
100
AcDbEntity
  8
0
100
AcDbBlockBegin
  2
*D6
 70
     1
 10
0.0
 20
0.0
 30
0.0
  3
*D6
  1

  0
LINE
  5
9AD
330
7E3
100
AcDbEntity
  8
0
 62
     1
370
    -2
100
AcDbLine
 10
688.9169359721493
 20
631.6489874937783
 30
0.0
 11
688.9169359721493
 21
643.3479904904166
 31
0.0
  0
LINE
  5
9AE
330
7E3
100
AcDbEntity
  8
0
 62
     1
370
    -2
100
AcDbLine
 10
725.7269359721448
 20
621.2489874937784
 30
0.0
 11
725.7269359721448
 21
643.3479904904166
 31
0.0
  0
LINE
  5
9AF
330
7E3
100
AcDbEntity
  8
0
 62
     1
370
    -2
100
AcDbLine
 10
691.9169359721493
 20
641.3479904904167
 30
0.0
 11
722.7269359721447
 21
641.3479904904167
 31
0.0
  0
SOLID
  5
9B0
330
7E3
100
AcDbEntity
  8
0
 62
     1
100
AcDbTrace
 10
691.9169359721493
 20
641.8479904904167
 30
0.0
 11
691.9169359721493
 21
640.8479904904167
 31
0.0
 12
688.9169359721493
 22
641.3479904904167
 32
0.0
 13
688.9169359721493
 23
641.3479904904167
 33
0.0
  0
SOLID
  5
9B1
330
7E3
100
AcDbEntity
  8
0
 62
     1
100
AcDbTrace
 10
722.7269359721447
 20
641.8479904904167
 30
0.0
 11
722.7269359721447
 21
640.8479904904167
 31
0.0
 12
725.7269359721448
 22
641.3479904904167
 32
0.0
 13
725.7269359721448
 23
641.3479904904167
 33
0.0
  0
MTEXT
  5
9B2
330
7E3
100
AcDbEntity
  8
0
 62
     3
100
AcDbMText
 10
707.321935972147
 20
644.2979904904167
 30
0.0
 40
3.5
 41
0.0
 71
     5
 72
     1
  1
\A1;37 Min.
  7
ISO3098B
 73
     1
 44
1.0
1001
ACAD
1000
MTEXTBEGIN
1070
    73
1070
     1
1070
    44
1040
1.0
1070
    74
1070
     0
1000
MTEXTEND
  0
POINT
  5
9B3
330
7E3
100
AcDbEntity
  8
DEFPOINTS
 62
     0
100
AcDbPoint
 10
688.9169359721493
 20
621.6489874937783
 30
0.0000000000000089
  0
POINT
  5
9B4
330
7E3
100
AcDbEntity
  8
DEFPOINTS
 62
     0
100
AcDbPoint
 10
725.7269359721448
 20
611.2489874937783
 30
0.0
  0
POINT
  5
9B5
330
7E3
100
AcDbEntity
  8
DEFPOINTS
 62
     0
100
AcDbPoint
 10
725.7269359721448
 20
641.3479904904167
 30
0.0
  0
ENDBLK
  5
7E5
330
7E3
100
AcDbEntity
  8
0
100
AcDbBlockEnd
  0
ENDSEC
  0
SECTION
  2
ENTITIES
  0
LINE
  5
4A5
330
1F
100
AcDbEntity
  8
0
100
AcDbLine
 10
628.8223621424179
 20
478.0489874937784
 30
-0.0000000000003559
 11
683.9169359721493
 21
478.0489874937783
 31
0.0
  0
ARC
  5
4A9
330
1F
100
AcDbEntity
  8
0
100
AcDbCircle
 10
683.9169359721493
 20
483.0489874937783
 30
-0.0000000000000303
 40
5.0
100
AcDbArc
 50
270.0
 51
0.0
  0
ARC
  5
4B3
330
1F
100
AcDbEntity
  8
0
 62
     7
100
AcDbCircle
 10
684.1169359721493
 20
496.1656803239874
 30
0.0000000000000082
 40
5.799999999999999
100
AcDbArc
 50
340.5370490536845
 51
19.46295094631548
  0
ARC
  5
4B5
330
1F
100
AcDbEntity
  8
0
 62
     7
100
AcDbCircle
 10
700.6169359721493
 20
490.3347284291422
 30
0.0000000000000082
 40
11.7
100
AcDbArc
 50
160.5370490536845
 51
180.0
  0
ARC
  5
4B7
330
1F
100
AcDbEntity
  8
0
 62
     7
100
AcDbCircle
 10
700.6169359721493
 20
501.9966322188327
 30
0.0000000000000082
 40
11.7
100
AcDbArc
 50
180.0
 51
199.4629509463154
  0
LINE
  5
4CA
330
1F
100
AcDbEntity
  8
0
100
AcDbLine
 10
688.9169359721493
 20
483.0489874937783
 30
-0.0000000000000303
 11
688.9169359721493
 21
490.3347284291422
 31
0.0000000000000082
  0
LINE
  5
4DE
102
{ACAD_REACTORS
330
5D2
102
}
330
1F
100
AcDbEntity
  8
0
100
AcDbLine
 10
633.1828031959243
 20
495.7912020415327
 30
0.0000000000000072
 11
624.9917463386585
 21
491.8694177005387
 31
-0.0000000000000245
  0
LINE
  5
4E0
330
1F
100
AcDbEntity
  8
0
100
AcDbLine
 10
621.6485403630091
 20
481.0744113001588
 30
-0.0000000000022958
 11
622.1539665332777
 21
480.1989874937787
 31
-0.0000000000022959
  0
LINE
  5
4E1
330
1F
100
AcDbEntity
  8
0
100
AcDbLine
 10
623.1207835494428
 20
481.9244113001582
 30
-0.0000000000022926
 11
623.6262097197116
 21
481.0489874937778
 31
-0.0000000000022868
  0
DIMENSION
  5
4EA
102
{ACAD_XDICTIONARY
360
4F7
102
}
102
{ACAD_REACTORS
330
501
102
}
330
1F
100
AcDbEntity
  8
0
100
AcDbDimension
  2
*D0
 10
620.6169359721493
 20
453.334680248176
 30
0.0
 11
655.6169359721494
 21
456.2846802481759
 31
0.0
 70
    32
  1
<> Max.
 71
     5
 42
70.0
  3
ISO3098B
100
AcDbAlignedDimension
 13
690.6169359721493
 23
483.0489874937783
 33
-0.0000000000000303
 14
620.6169359721493
 24
485.654406894538
 34
-0.0000000000000303
100
AcDbRotatedDimension
  0
DIMENSION
  5
50B
102
{ACAD_XDICTIONARY
360
518
102
}
102
{ACAD_REACTORS
330
522
102
}
330
1F
100
AcDbEntity
  8
0
100
AcDbDimension
  2
*D1
 10
740.9169359721492
 20
653.5065898214611
 30
0.0
 11
714.9169359721493
 21
656.4565898214612
 31
0.0
 70
    32
  1
<> Max.
 71
     5
 42
52.0
  3
ISO3098B
100
AcDbAlignedDimension
 13
688.9169359721493
 23
621.6489874937783
 33
0.0
 14
740.9169359721492
 24
619.6489874937781
 34
-0.0000000000000009
100
AcDbRotatedDimension
  0
DIMENSION
  5
535
102
{ACAD_XDICTIONARY
360
542
102
}
102
{ACAD_REACTORS
330
54C
102
}
330
1F
100
AcDbEntity
  8
0
100
AcDbDimension
  2
*D2
 10
600.4628052408198
 20
628.3489874937783
 30
0.0
 11
597.5128052408195
 21
552.3489874937784
 31
0.0
 70
    32
  1
<> O/A Nominal
 71
     5
 42
152.0
  3
ISO3098B
100
AcDbAlignedDimension
 13
628.8211755645296
 23
476.3489874937784
 33
0.0
 14
695.6169359721493
 24
628.3489874937783
 34
0.0000000000000478
 50
90.0
100
AcDbRotatedDimension
  0
DIMENSION
  5
558
102
{ACAD_XDICTIONARY
360
565
102
}
102
{ACAD_REACTORS
330
56F
102
}
330
1F
100
AcDbEntity
  8
0
100
AcDbDimension
  2
*D3
 10
756.6296515507641
 20
609.5489874937782
 30
0.0
 11
753.6796515507639
 21
542.9489874937784
 31
0.0
 70
    32
  1
133 Min.
 71
     5
 42
133.1999999999997
  3
ISO3098B
100
AcDbAlignedDimension
 13
683.9169359721493
 23
476.3489874937784
 33
0.0
 14
732.2169359721491
 24
609.5489874937782
 34
-0.0000000000012742
 50
90.0
100
AcDbRotatedDimension
  0
DIMENSION
  5
588
330
1F
100
AcDbEntity
  8
0
100
AcDbDimension
  2
*D4
 10
688.9169359721495
 20
518.5566175180479
 30
0.0
 11
661.4169359721495
 21
521.506617518048
 31
0.0
 70
    32
  1
55 Min.
 71
     5
 42
55.00000000000011
  3
ISO3098B
100
AcDbAlignedDimension
 13
633.9169359721494
 23
494.2578889401499
 33
0.0000000000000072
 14
688.9169359721495
 24
501.9284921376768
 34
0.0000000000000098
100
AcDbRotatedDimension
  0
DIMENSION
  5
5BB
102
{ACAD_XDICTIONARY
360
5C8
102
}
102
{ACAD_REACTORS
330
5D2
102
}
330
1F
100
AcDbEntity
  8
0
100
AcDbDimension
  2
*D5
 10
614.8810181977818
 20
495.7912020415327
 30
0.0
 11
611.9310181977816
 21
562.0700947676557
 31
0.0
 70
    32
  1
132 Min.
 71
     5
 42
132.5577854522456
  3
ISO3098B
100
AcDbAlignedDimension
 13
695.6169359721493
 23
628.3489874937783
 33
0.0
 14
633.1828031959243
 24
495.7912020415327
 34
-0.0000000000000021
 50
90.0
100
AcDbRotatedDimension
  0
LINE
  5
5F8
102
{ACAD_REACTORS
330
5D2
102
}
330
1F
100
AcDbEntity
  8
0
100
AcDbLine
 10
633.9169359721494
 20
494.2578889401499
 30
0.0000000000000072
 11
625.7258791148838
 21
490.3361045991561
 31
-0.0000000000000245
  0
LINE
  5
712
330
1F
100
AcDbEntity
  8
0
100
AcDbLine
 10
633.9169359721495
 20
494.2578889401501
 30
0.0
 11
633.1828031959243
 21
495.7912020415328
 31
0.0000000000000072
  0
DIMENSION
  5
7E2
102
{ACAD_XDICTIONARY
360
7EF
102
}
102
{ACAD_REACTORS
330
7F9
102
}
330
1F
100
AcDbEntity
  8
0
100
AcDbDimension
  2
*D6
 10
725.7269359721448
 20
641.3479904904167
 30
0.0
 11
707.321935972147
 21
644.2979904904167
 31
0.0
 70
    32
  1
37 Min.
 71
     5
 42
36.80999999999551
  3
ISO3098B
100
AcDbAlignedDimension
 13
688.9169359721493
 23
621.6489874937783
 33
0.0000000000000089
 14
725.7269359721448
 24
611.2489874937783
 34
0.0
100
AcDbRotatedDimension
  0
ARC
  5
8D0
330
1F
100
AcDbEntity
  8
0
100
AcDbCircle
 10
628.3169359721494
 20
484.9244113001583
 30
-0.0000000000022926
 40
6.0
100
AcDbArc
 50
115.5845664291834
 51
210.000000000002
  0
ARC
  5
8D1
330
1F
100
AcDbEntity
  8
0
100
AcDbCircle
 10
628.3169359721494
 20
484.9244113001583
 30
-0.0000000000022926
 40
7.7
100
AcDbArc
 50
115.5845664291834
 51
210.000000000002
  0
ARC
  5
8D7
330
1F
100
AcDbEntity
  8
0
100
AcDbCircle
 10
628.8223621424179
 20
484.0489874937784
 30
-0.0000000004962579
 40
6.0
100
AcDbArc
 50
210.000000000007
 51
270.0
  0
ARC
  5
8D8
330
1F
100
AcDbEntity
  8
0
100
AcDbCircle
 10
628.8223621424179
 20
484.0489874937784
 30
-0.0000000004962579
 40
7.7
100
AcDbArc
 50
210.000000000007
 51
270.0
  0
LWPOLYLINE
  5
8D9
102
{ACAD_REACTORS
330
7F9
330
56F
330
501
330
54C
330
522
330
5D2
102
}
330
1F
100
AcDbEntity
  8
0
 62
     7
100
AcDbPolyline
 90
       46
 70
     0
 43
0.0
 10
628.8211755645296
 20
476.3489874937784
 10
683.9169359721493
 20
476.3489874937784
 42
0.4142135623730951
 10
690.6169359721493
 20
483.0489874937783
 10
690.6169359721493
 20
490.3347284291422
 42
-0.0851278882543166
 10
691.1883645435779
 20
493.6667009404821
 42
0.171498585142511
 10
691.1883645435779
 20
498.6646597074925
 42
-0.0851278882543165
 10
690.6169359721493
 20
501.9966322188327
 10
690.6169359721493
 20
532.8077838000094
 42
-0.0851278882543166
 10
691.1883645435779
 20
536.1397563113495
 42
0.171498585142511
 10
691.1883645435779
 20
541.1377150783598
 42
-0.0851278882543165
 10
690.6169359721494
 20
544.4696875897
 10
690.6169359721493
 20
555.624605049709
 42
-0.0851278882542903
 10
691.1883645435781
 20
558.95657756105
 42
0.171498585142457
 10
691.1883645435775
 20
563.9545363280603
 42
-0.0851278882542901
 10
690.6169359721493
 20
567.2865088393996
 10
690.6169359721492
 20
598.0976604205761
 42
-0.0851278882542903
 10
691.1883645435775
 20
601.4296329319154
 42
0.171498585142457
 10
691.1883645435781
 20
606.4275916989259
 42
-0.0851278882542901
 10
690.6169359721493
 20
609.7595642102669
 10
690.6169359721493
 20
621.6489874937783
 42
-0.4142135623730951
 10
695.6169359721493
 20
626.6489874937783
 10
732.2169359721492
 20
626.6489874937781
 42
-0.4142135623730933
 10
739.2169359721492
 20
619.6489874937781
 10
739.2169359721491
 20
618.2489874937783
 42
-0.4142135623730951
 10
732.2169359721491
 20
611.2489874937782
 10
725.7269359721449
 20
611.2489874937783
 10
725.7269359721448
 20
609.5489874937783
 10
732.2169359721491
 20
609.5489874937782
 42
0.4142135623730951
 10
740.9169359721492
 20
618.2489874937783
 10
740.9169359721492
 20
619.6489874937781
 42
0.4142135623730933
 10
732.2169359721492
 20
628.3489874937782
 10
695.6169359721493
 20
628.3489874937783
 42
0.4142135623730951
 10
688.9169359721493
 20
621.6489874937783
 10
688.9169359721493
 20
609.7595642102669
 42
0.0851278882542901
 10
689.5855074007203
 20
605.8611563720001
 42
-0.171498585142457
 10
689.585507400721
 20
601.9960682588448
 42
0.0851278882542903
 10
688.9169359721493
 20
598.0976604205761
 10
688.9169359721493
 20
567.2865088393996
 42
0.0851278882542901
 10
689.5855074007203
 20
563.3881010011328
 42
-0.171498585142457
 10
689.585507400721
 20
559.5230128879777
 42
0.0851278882542903
 10
688.9169359721493
 20
555.624605049709
 10
688.9169359721493
 20
544.4696875897
 42
0.0851278882543165
 10
689.5855074007207
 20
540.571279751432
 42
-0.171498585142511
 10
689.5855074007207
 20
536.7061916382773
 42
0.0851278882543166
 10
688.9169359721493
 20
532.8077838000094
 10
688.9169359721495
 20
501.9284921376768
  0
ENDSEC
  0
SECTION
  2
OBJECTS
  0
DICTIONARY
  5
C
330
0
100
AcDbDictionary
281
     1
  3
ACAD_COLOR
350
6B
  3
ACAD_GROUP
350
D
  3
ACAD_LAYOUT
350
1A
  3
ACAD_MATERIAL
350
6A
  3
ACAD_MLEADERSTYLE
350
12D
  3
ACAD_MLINESTYLE
350
17
  3
ACAD_PLOTSETTINGS
350
19
  3
ACAD_PLOTSTYLENAME
350
E
  3
ACAD_SCALELIST
350
10C
  3
ACAD_TABLESTYLE
350
7E
  3
ACAD_VISUALSTYLE
350
EF
  3
ACDB_RECOMPOSE_DATA
350
15D
  3
AcDbVariableDictionary
350
5E
  3
DWGPROPS
350
9D8
  0
DICTIONARY
  5
1D3
330
2
100
AcDbDictionary
280
     1
281
     1
  3
ACAD_LAYERFILTERS
360
90A
  3
ACLYDICTIONARY
360
909
  0
DICTIONARY
  5
13C
330
10
100
AcDbDictionary
280
     1
281
     1
  3
ADSK_XREC_LAYER_RECONCILED
360
1E0
  0
DICTIONARY
  5
3B0
330
1F
100
AcDbDictionary
280
     1
281
     1
  3
ACAD_SORTENTS
360
3B1
  0
DICTIONARY
  5
4F7
330
4EA
100
AcDbDictionary
280
     1
281
     1
  3
ACAD_DIMASSOC
360
501
  0
DICTIONARY
  5
518
330
50B
100
AcDbDictionary
280
     1
281
     1
  3
ACAD_DIMASSOC
360
522
  0
DICTIONARY
  5
542
330
535
100
AcDbDictionary
280
     1
281
     1
  3
ACAD_DIMASSOC
360
54C
  0
DICTIONARY
  5
565
330
558
100
AcDbDictionary
280
     1
281
     1
  3
ACAD_DIMASSOC
360
56F
  0
DICTIONARY
  5
5C8
330
5BB
100
AcDbDictionary
280
     1
281
     1
  3
ACAD_DIMASSOC
360
5D2
  0
DICTIONARY
  5
7EF
330
7E2
100
AcDbDictionary
280
     1
281
     1
  3
ACAD_DIMASSOC
360
7F9
  0
DICTIONARY
  5
6B
102
{ACAD_REACTORS
330
C
102
}
330
C
100
AcDbDictionary
281
     1
  0
DICTIONARY
  5
D
102
{ACAD_REACTORS
330
C
102
}
330
C
100
AcDbDictionary
281
     1
  0
DICTIONARY
  5
1A
102
{ACAD_REACTORS
330
C
102
}
330
C
100
AcDbDictionary
281
     1
  3
Layout1
350
D3
  3
Model
350
22
  0
DICTIONARY
  5
6A
102
{ACAD_REACTORS
330
C
102
}
330
C
100
AcDbDictionary
281
     1
  3
ByBlock
350
ED
  3
ByLayer
350
EC
  3
Global
350
EE
  0
DICTIONARY
  5
12D
102
{ACAD_REACTORS
330
C
102
}
330
C
100
AcDbDictionary
281
     1
  3
Standard
350
12E
  0
DICTIONARY
  5
17
102
{ACAD_REACTORS
330
C
102
}
330
C
100
AcDbDictionary
281
     1
  3
Standard
350
18
  0
DICTIONARY
  5
19
102
{ACAD_REACTORS
330
C
102
}
330
C
100
AcDbDictionary
281
     1
  0
ACDBDICTIONARYWDFLT
  5
E
102
{ACAD_REACTORS
330
C
102
}
330
C
100
AcDbDictionary
281
     1
  3
Normal
350
F
100
AcDbDictionaryWithDefault
340
F
  0
DICTIONARY
  5
10C
102
{ACAD_REACTORS
330
C
102
}
330
C
100
AcDbDictionary
281
     1
  3
A0
350
10D
  3
A1
350
188
  3
A2
350
189
  3
A3
350
18A
  3
A4
350
18B
  3
A5
350
18C
  3
A6
350
18D
  3
A7
350
18E
  3
A8
350
18F
  3
A9
350
190
  3
B0
350
191
  3
B1
350
192
  3
B2
350
193
  3
B3
350
194
  3
B4
350
195
  3
B5
350
196
  3
B6
350
197
  3
B7
350
198
  3
B8
350
199
  3
B9
350
19A
  3
C0
350
19B
  3
C1
350
19C
  3
C2
350
19D
  3
C3
350
19E
  3
C4
350
19F
  3
C5
350
1A0
  3
C6
350
1A1
  3
C7
350
1A2
  3
C8
350
1A3
  3
C9
350
1A4
  3
D0
350
1A5
  3
D1
350
1A6
  3
D2
350
1A7
  0
DICTIONARY
  5
7E
102
{ACAD_REACTORS
330
C
102
}
330
C
100
AcDbDictionary
281
     1
  3
Standard
350
7F
  0
DICTIONARY
  5
EF
102
{ACAD_REACTORS
330
C
102
}
330
C
100
AcDbDictionary
281
     1
  3
2dWireframe
350
F5
  3
3D Hidden
350
F7
  3
3dWireframe
350
F6
  3
Basic
350
F4
  3
Brighten
350
FB
  3
ColorChange
350
FF
  3
Conceptual
350
F8
  3
Dim
350
FA
  3
Facepattern
350
FE
  3
Flat
350
F0
  3
FlatWithEdges
350
F1
  3
Gouraud
350
F2
  3
GouraudWithEdges
350
F3
  3
Linepattern
350
FD
  3
Realistic
350
F9
  3
Thicken
350
FC
  0
XRECORD
  5
15D
102
{ACAD_REACTORS
330
C
102
}
330
C
100
AcDbXrecord
280
     1
 90
        1
330
7F
  0
DICTIONARY
  5
5E
102
{ACAD_REACTORS
330
C
102
}
330
C
100
AcDbDictionary
281
     1
  3
CANNOSCALE
350
146
  3
CMLEADERSTYLE
350
145
  3
CTABLESTYLE
350
84
  3
DIMASSOC
350
5F
  3
HIDETEXT
350
63
  3
INDEXCTL
350
9D4
  3
LIGHTINGUNITS
350
9D2
  3
MSLTSCALE
350
9D1
  3
PSOLHEIGHT
350
9D6
  3
PSOLWIDTH
350
9D5
  3
SORTENTS
350
9D3
  0
XRECORD
  5
9D8
102
{ACAD_REACTORS
330
C
102
}
330
C
100
AcDbXrecord
280
     1
  1
DWGPROPS COOKIE
  2

  3

  4

  6

  7

  8
PMPAGR
  9

300
=
301
=
302
=
303
=
304
=
305
=
306
=
307
=
308
=
309
=
 40
0.180890462962963
 41
2454571.574666042
 42
2454651.425055683
  1

 90
        0
  0
DICTIONARY
  5
90A
102
{ACAD_REACTORS
330
1D3
102
}
330
1D3
100
AcDbDictionary
281
     1
  0
DICTIONARY
  5
909
102
{ACAD_REACTORS
330
1D3
102
}
330
1D3
100
AcDbDictionary
281
     1
1001
ACAD
1000
<All
  0
XRECORD
  5
1E0
102
{ACAD_REACTORS
330
13C
102
}
330
13C
100
AcDbXrecord
280
     1
290
     1
  0
SORTENTSTABLE
  5
3B1
102
{ACAD_REACTORS
330
3B0
102
}
330
3B0
100
AcDbSortentsTable
330
1F
331
4A5
  5
3C9
331
558
  5
755
331
712
  5
758
331
8D7
  5
50B
331
4B5
  5
4BF
331
4E1
  5
4E5
331
8D1
  5
8D9
331
4CA
  5
4DC
331
4A9
  5
440
331
535
  5
754
331
50B
  5
753
331
4E0
  5
4E1
331
8D0
  5
8D4
331
588
  5
756
331
5BB
  5
757
331
4B3
  5
4BD
331
4EA
  5
752
331
7E2
  5
8D7
331
4DE
  5
750
331
8D9
  5
4BB
331
4B7
  5
4C1
331
5F8
  5
751
  0
DIMASSOC
  5
501
102
{ACAD_REACTORS
330
4F7
102
}
330
4F7
100
AcDbDimAssoc
330
4EA
 90
        1
 70
     0
 71
     0
  1
AcDbOsnapPointRef
 72
    13
331
8D9
 73
     2
 91
        3
 40
0.0
 10
0.0
 20
0.0
 30
2.000000000000000E+50
 75
     0
  0
DIMASSOC
  5
522
102
{ACAD_REACTORS
330
518
102
}
330
518
100
AcDbDimAssoc
330
50B
 90
        3
 70
     0
 71
     0
  1
AcDbOsnapPointRef
 72
     1
331
8D9
 73
     2
 91
       32
 40
1.0
 10
0.0
 20
0.0
 30
2.000000000000000E+50
 75
     0
  1
AcDbOsnapPointRef
 72
    13
331
8D9
 73
     2
 91
       30
 40
0.0
 10
0.0
 20
0.0
 30
2.000000000000000E+50
 75
     0
  0
DIMASSOC
  5
54C
102
{ACAD_REACTORS
330
542
102
}
330
542
100
AcDbDimAssoc
330
535
 90
        3
 70
     0
 71
     0
  1
AcDbOsnapPointRef
 72
    13
331
8D9
 73
     2
 91
        1
 40
0.0
 10
0.0
 20
0.0
 30
2.000000000000000E+50
 75
     0
  1
AcDbOsnapPointRef
 72
    13
331
8D9
 73
     2
 91
       32
 40
0.0
 10
0.0
 20
0.0
 30
2.000000000000000E+50
 75
     0
  0
DIMASSOC
  5
56F
102
{ACAD_REACTORS
330
565
102
}
330
565
100
AcDbDimAssoc
330
558
 90
        3
 70
     0
 71
     0
  1
AcDbOsnapPointRef
 72
     1
331
8D9
 73
     2
 91
        1
 40
1.0
 10
0.0
 20
0.0
 30
2.000000000000000E+50
 75
     0
  1
AcDbOsnapPointRef
 72
     1
331
8D9
 73
     2
 91
       27
 40
1.0
 10
0.0
 20
0.0
 30
2.000000000000000E+50
 75
     0
  0
DIMASSOC
  5
5D2
102
{ACAD_REACTORS
330
5C8
102
}
330
5C8
100
AcDbDimAssoc
330
5BB
 90
        3
 70
     0
 71
     0
  1
AcDbOsnapPointRef
 72
    13
331
8D9
 73
     2
 91
       32
 40
0.0
 10
0.0
 20
0.0
 30
2.000000000000000E+50
 75
     0
  1
AcDbOsnapPointRef
 72
    13
331
4DE
 73
     2
 91
        0
 40
0.0
 10
0.0
 20
0.0
 30
2.000000000000000E+50
 75
     0
  0
DIMASSOC
  5
7F9
102
{ACAD_REACTORS
330
7EF
102
}
330
7EF
100
AcDbDimAssoc
330
7E2
 90
        2
 70
     0
 71
     0
  1
AcDbOsnapPointRef
 72
    13
331
8D9
 73
     2
 91
       26
 40
0.0
 10
0.0
 20
0.0
 30
2.000000000000000E+50
 75
     0
  0
LAYOUT
  5
D3
102
{ACAD_XDICTIONARY
360
9DC
102
}
102
{ACAD_REACTORS
330
1A
102
}
330
1A
100
AcDbPlotSettings
  1

  2
C:\Documents and Settings\basas\Application Data\Autodesk\AutoCAD 2005\R16.1\enu\plotters\Default Windows System Printer.pc3
  4

  6

 40
0.0
 41
0.0
 42
0.0
 43
0.0
 44
0.0
 45
0.0
 46
0.0
 47
0.0
 48
0.0
 49
0.0
140
0.0
141
0.0
142
1.0
143
1.0
 70
   688
 72
     0
 73
     0
 74
     5
  7

 75
    16
147
1.0
148
0.0
149
0.0
100
AcDbLayout
  1
Layout1
 70
     1
 71
     1
 10
0.0
 20
0.0
 11
12.0
 21
9.0
 12
0.0
 22
0.0
 32
0.0
 14
0.0
 24
0.0
 34
0.0
 15
0.0
 25
0.0
 35
0.0
146
0.0
 13
0.0
 23
0.0
 33
0.0
 16
1.0
 26
0.0
 36
0.0
 17
0.0
 27
1.0
 37
0.0
 76
     0
330
D2
  0
LAYOUT
  5
22
102
{ACAD_XDICTIONARY
360
9D9
102
}
102
{ACAD_REACTORS
330
1A
102
}
330
1A
100
AcDbPlotSettings
  1

  2
none_device
  4
ISO_A4_(210.00_x_297.00_MM)
  6

 40
7.5
 41
20.0
 42
7.5
 43
20.0
 44
210.0
 45
297.0
 46
11.54999923706054
 47
-13.65000009536743
 48
0.0
 49
0.0
140
0.0
141
0.0
142
1.0
143
8.704084754739808
 70
 11952
 72
     1
 73
     0
 74
     0
  7

 75
     0
147
0.1148885871608098
148
0.0
149
0.0
100
AcDbLayout
  1
Model
 70
     1
 71
     0
 10
0.0
 20
0.0
 11
12.0
 21
9.0
 12
0.0
 22
0.0
 32
0.0
 14
0.0
 24
0.0
 34
0.0
 15
0.0
 25
0.0
 35
0.0
146
0.0
 13
0.0
 23
0.0
 33
0.0
 16
1.0
 26
0.0
 36
0.0
 17
0.0
 27
1.0
 37
0.0
 76
     0
330
1F
331
EA
1001
ACAD_PSEXT
1000
None
1000
None
1000
Not applicable
1000
The layout will not be plotted unless a new plotter configuration name is selected.
1070
     0
  0
MATERIAL
  5
ED
102
{ACAD_XDICTIONARY
360
9E0
102
}
102
{ACAD_REACTORS
330
6A
102
}
330
6A
100
AcDbMaterial
  1
ByBlock
  0
MATERIAL
  5
EC
102
{ACAD_XDICTIONARY
360
9DE
102
}
102
{ACAD_REACTORS
330
6A
102
}
330
6A
100
AcDbMaterial
  1
ByLayer
  0
MATERIAL
  5
EE
102
{ACAD_XDICTIONARY
360
173
102
}
102
{ACAD_REACTORS
330
6A
102
}
330
6A
100
AcDbMaterial
  1
Global
 43
0.0007999999797903
 43
0.0
 43
0.0
 43
0.0
 43
0.0
 43
0.0007999999797903
 43
0.0
 43
0.0
 43
0.0
 43
0.0
 43
1.0
 43
0.0
 43
0.0
 43
0.0
 43
0.0
 43
1.0
 49
0.0007999999797903
 49
0.0
 49
0.0
 49
0.0
 49
0.0
 49
0.0007999999797903
 49
0.0
 49
0.0
 49
0.0
 49
0.0
 49
1.0
 49
0.0
 49
0.0
 49
0.0
 49
0.0
 49
1.0
142
0.0007999999797903
142
0.0
142
0.0
142
0.0
142
0.0
142
0.0007999999797903
142
0.0
142
0.0
142
0.0
142
0.0
142
1.0
142
0.0
142
0.0
142
0.0
142
0.0
142
1.0
144
0.0007999999797903
144
0.0
144
0.0
144
0.0
144
0.0
144
0.0007999999797903
144
0.0
144
0.0
144
0.0
144
0.0
144
1.0
144
0.0
144
0.0
144
0.0
144
0.0
144
1.0
1001
ACAD
1070
    -1
1070
     3
1070
     0
1000

1071
        0
1070
     0
  0
MLEADERSTYLE
  5
12E
102
{ACAD_REACTORS
330
12D
102
}
330
12D
100
AcDbMLeaderStyle
170
     2
171
     1
172
     0
 90
        2
 40
0.0
 41
0.0
173
     1
 91
-1056964608
340
14
 92
       -2
290
     1
 42
2.0
291
     1
 43
8.0
  3
Standard
 44
4.0
300

342
11
174
     1
178
     1
175
     1
176
     0
 93
-1056964608
 45
4.0
292
     0
297
     0
 46
4.0
 94
-1056964608
 47
1.0
 49
1.0
140
1.0
293
     1
141
0.0
294
     1
177
     0
142
1.0
295
     0
296
     0
143
3.75
1001
ACAD_MLEADERVER
1070
     2
  0
MLINESTYLE
  5
18
102
{ACAD_REACTORS
330
17
102
}
330
17
100
AcDbMlineStyle
  2
STANDARD
 70
     0
  3

 62
   256
 51
90.0
 52
90.0
 71
     2
 49
0.5
 62
   256
  6
BYLAYER
 49
-0.5
 62
   256
  6
BYLAYER
  0
ACDBPLACEHOLDER
  5
F
102
{ACAD_REACTORS
330
E
102
}
330
E
  0
SCALE
  5
10D
102
{ACAD_REACTORS
330
10C
102
}
330
10C
100
AcDbScale
 70
     0
300
1:1
140
1.0
141
1.0
290
     1
  0
SCALE
  5
188
102
{ACAD_REACTORS
330
10C
102
}
330
10C
100
AcDbScale
 70
     0
300
1:2
140
1.0
141
2.0
290
     0
  0
SCALE
  5
189
102
{ACAD_REACTORS
330
10C
102
}
330
10C
100
AcDbScale
 70
     0
300
1:4
140
1.0
141
4.0
290
     0
  0
SCALE
  5
18A
102
{ACAD_REACTORS
330
10C
102
}
330
10C
100
AcDbScale
 70
     0
300
1:5
140
1.0
141
5.0
290
     0
  0
SCALE
  5
18B
102
{ACAD_REACTORS
330
10C
102
}
330
10C
100
AcDbScale
 70
     0
300
1:8
140
1.0
141
8.0
290
     0
  0
SCALE
  5
18C
102
{ACAD_REACTORS
330
10C
102
}
330
10C
100
AcDbScale
 70
     0
300
1:10
140
1.0
141
10.0
290
     0
  0
SCALE
  5
18D
102
{ACAD_REACTORS
330
10C
102
}
330
10C
100
AcDbScale
 70
     0
300
1:16
140
1.0
141
16.0
290
     0
  0
SCALE
  5
18E
102
{ACAD_REACTORS
330
10C
102
}
330
10C
100
AcDbScale
 70
     0
300
1:20
140
1.0
141
20.0
290
     0
  0
SCALE
  5
18F
102
{ACAD_REACTORS
330
10C
102
}
330
10C
100
AcDbScale
 70
     0
300
1:30
140
1.0
141
30.0
290
     0
  0
SCALE
  5
190
102
{ACAD_REACTORS
330
10C
102
}
330
10C
100
AcDbScale
 70
     0
300
1:40
140
1.0
141
40.0
290
     0
  0
SCALE
  5
191
102
{ACAD_REACTORS
330
10C
102
}
330
10C
100
AcDbScale
 70
     0
300
1:50
140
1.0
141
50.0
290
     0
  0
SCALE
  5
192
102
{ACAD_REACTORS
330
10C
102
}
330
10C
100
AcDbScale
 70
     0
300
1:100
140
1.0
141
100.0
290
     0
  0
SCALE
  5
193
102
{ACAD_REACTORS
330
10C
102
}
330
10C
100
AcDbScale
 70
     0
300
2:1
140
2.0
141
1.0
290
     0
  0
SCALE
  5
194
102
{ACAD_REACTORS
330
10C
102
}
330
10C
100
AcDbScale
 70
     0
300
4:1
140
4.0
141
1.0
290
     0
  0
SCALE
  5
195
102
{ACAD_REACTORS
330
10C
102
}
330
10C
100
AcDbScale
 70
     0
300
8:1
140
8.0
141
1.0
290
     0
  0
SCALE
  5
196
102
{ACAD_REACTORS
330
10C
102
}
330
10C
100
AcDbScale
 70
     0
300
10:1
140
10.0
141
1.0
290
     0
  0
SCALE
  5
197
102
{ACAD_REACTORS
330
10C
102
}
330
10C
100
AcDbScale
 70
     0
300
100:1
140
100.0
141
1.0
290
     0
  0
SCALE
  5
198
102
{ACAD_REACTORS
330
10C
102
}
330
10C
100
AcDbScale
 70
     0
300
1/128" = 1'-0"
140
0.0078125
141
12.0
290
     0
  0
SCALE
  5
199
102
{ACAD_REACTORS
330
10C
102
}
330
10C
100
AcDbScale
 70
     0
300
1/64" = 1'-0"
140
0.015625
141
12.0
290
     0
  0
SCALE
  5
19A
102
{ACAD_REACTORS
330
10C
102
}
330
10C
100
AcDbScale
 70
     0
300
1/32" = 1'-0"
140
0.03125
141
12.0
290
     0
  0
SCALE
  5
19B
102
{ACAD_REACTORS
330
10C
102
}
330
10C
100
AcDbScale
 70
     0
300
1/16" = 1'-0"
140
0.0625
141
12.0
290
     0
  0
SCALE
  5
19C
102
{ACAD_REACTORS
330
10C
102
}
330
10C
100
AcDbScale
 70
     0
300
3/32" = 1'-0"
140
0.09375
141
12.0
290
     0
  0
SCALE
  5
19D
102
{ACAD_REACTORS
330
10C
102
}
330
10C
100
AcDbScale
 70
     0
300
1/8" = 1'-0"
140
0.125
141
12.0
290
     0
  0
SCALE
  5
19E
102
{ACAD_REACTORS
330
10C
102
}
330
10C
100
AcDbScale
 70
     0
300
3/16" = 1'-0"
140
0.1875
141
12.0
290
     0
  0
SCALE
  5
19F
102
{ACAD_REACTORS
330
10C
102
}
330
10C
100
AcDbScale
 70
     0
300
1/4" = 1'-0"
140
0.25
141
12.0
290
     0
  0
SCALE
  5
1A0
102
{ACAD_REACTORS
330
10C
102
}
330
10C
100
AcDbScale
 70
     0
300
3/8" = 1'-0"
140
0.375
141
12.0
290
     0
  0
SCALE
  5
1A1
102
{ACAD_REACTORS
330
10C
102
}
330
10C
100
AcDbScale
 70
     0
300
1/2" = 1'-0"
140
0.5
141
12.0
290
     0
  0
SCALE
  5
1A2
102
{ACAD_REACTORS
330
10C
102
}
330
10C
100
AcDbScale
 70
     0
300
3/4" = 1'-0"
140
0.75
141
12.0
290
     0
  0
SCALE
  5
1A3
102
{ACAD_REACTORS
330
10C
102
}
330
10C
100
AcDbScale
 70
     0
300
1" = 1'-0"
140
1.0
141
12.0
290
     0
  0
SCALE
  5
1A4
102
{ACAD_REACTORS
330
10C
102
}
330
10C
100
AcDbScale
 70
     0
300
1-1/2" = 1'-0"
140
1.5
141
12.0
290
     0
  0
SCALE
  5
1A5
102
{ACAD_REACTORS
330
10C
102
}
330
10C
100
AcDbScale
 70
     0
300
3" = 1'-0"
140
3.0
141
12.0
290
     0
  0
SCALE
  5
1A6
102
{ACAD_REACTORS
330
10C
102
}
330
10C
100
AcDbScale
 70
     0
300
6" = 1'-0"
140
6.0
141
12.0
290
     0
  0
SCALE
  5
1A7
102
{ACAD_REACTORS
330
10C
102
}
330
10C
100
AcDbScale
 70
     0
300
1'-0" = 1'-0"
140
12.0
141
12.0
290
     0
  0
TABLESTYLE
  5
7F
102
{ACAD_XDICTIONARY
360
162
102
}
102
{ACAD_REACTORS
330
7E
102
}
330
7E
100
AcDbTableStyle
  3
Standard
 70
     0
 71
     0
 40
1.5
 41
1.5
280
     0
281
     0
  7
Standard
140
4.5
170
     2
 62
     0
 63
     7
283
     0
274
    -2
284
     1
 64
     0
275
    -2
285
     1
 65
     0
276
    -2
286
     1
 66
     0
277
    -2
287
     1
 67
     0
278
    -2
288
     1
 68
     0
279
    -2
289
     1
 69
     0
  7
Standard
140
6.0
170
     5
 62
     0
 63
     7
283
     0
274
    -2
284
     1
 64
     0
275
    -2
285
     1
 65
     0
276
    -2
286
     1
 66
     0
277
    -2
287
     1
 67
     0
278
    -2
288
     1
 68
     0
279
    -2
289
     1
 69
     0
  7
Standard
140
4.5
170
     5
 62
     0
 63
     7
283
     0
274
    -2
284
     1
 64
     0
275
    -2
285
     1
 65
     0
276
    -2
286
     1
 66
     0
277
    -2
287
     1
 67
     0
278
    -2
288
     1
 68
     0
279
    -2
289
     1
 69
     0
  0
VISUALSTYLE
  5
F5
102
{ACAD_REACTORS
330
EF
102
}
330
EF
100
AcDbVisualStyle
  2
2dWireframe
 70
     4
 71
     0
 72
     2
 73
     1
 90
        0
 40
-0.6
 41
-30.0
 62
     5
 63
     7
 74
     1
 91
        4
 64
     7
 65
   257
 75
     1
175
     1
 42
1.0
 92
        0
 66
   257
 43
1.0
 76
     1
 77
     6
 78
     2
 67
     7
 79
     5
170
     0
171
     0
290
     0
174
     0
 93
        1
 44
0.0
173
     0
291
     0
 45
0.0
1001
ACAD
1000
AcDbSavedByObjectVersion
1070
     0
  0
VISUALSTYLE
  5
F7
102
{ACAD_REACTORS
330
EF
102
}
330
EF
100
AcDbVisualStyle
  2
3D Hidden
 70
     6
 71
     1
 72
     2
 73
     2
 90
        0
 40
-0.6
 41
-30.0
 62
     5
 63
     7
 74
     2
 91
        2
 64
     7
 65
   257
 75
     2
175
     1
 42
40.0
 92
        0
 66
   257
 43
1.0
 76
     1
 77
     6
 78
     2
 67
     7
 79
     3
170
     0
171
     0
290
     0
174
     0
 93
        1
 44
0.0
173
     0
291
     0
 45
0.0
1001
ACAD
1000
AcDbSavedByObjectVersion
1070
     0
  0
VISUALSTYLE
  5
F6
102
{ACAD_REACTORS
330
EF
102
}
330
EF
100
AcDbVisualStyle
  2
3dWireframe
 70
     5
 71
     0
 72
     2
 73
     1
 90
        0
 40
-0.6
 41
-30.0
 62
     5
 63
     7
 74
     1
 91
        4
 64
     7
 65
   257
 75
     1
175
     1
 42
1.0
 92
        0
 66
   257
 43
1.0
 76
     1
 77
     6
 78
     2
 67
     7
 79
     5
170
     0
171
     0
290
     0
174
     0
 93
        1
 44
0.0
173
     0
291
     0
 45
0.0
1001
ACAD
1000
AcDbSavedByObjectVersion
1070
     0
  0
VISUALSTYLE
  5
F4
102
{ACAD_REACTORS
330
EF
102
}
330
EF
100
AcDbVisualStyle
  2
Basic
 70
     7
 71
     1
 72
     0
 73
     1
 90
        0
 40
-0.6
 41
-30.0
 62
     5
 63
     7
 74
     0
 91
        4
 64
     7
 65
   257
 75
     1
175
     1
 42
1.0
 92
        8
 66
     7
 43
1.0
 76
     1
 77
     6
 78
     2
 67
     7
 79
     5
170
     0
171
     0
290
     0
174
     0
 93
        1
 44
0.0
173
     0
291
     1
 45
0.0
1001
ACAD
1000
AcDbSavedByObjectVersion
1070
     0
  0
VISUALSTYLE
  5
FB
102
{ACAD_REACTORS
330
EF
102
}
330
EF
100
AcDbVisualStyle
  2
Brighten
 70
    12
 71
     2
 72
     2
 73
     1
 90
        0
 40
-0.6
 41
-30.0
 62
     5
 63
     7
 74
     1
 91
        4
 64
     7
 65
   257
 75
     1
175
     1
 42
1.0
 92
        8
 66
     7
 43
1.0
 76
     1
 77
     6
 78
     2
 67
     7
 79
     5
170
     0
171
     0
290
     0
174
     0
 93
        1
 44
50.0
173
     0
291
     1
 45
0.0
1001
ACAD
1000
AcDbSavedByObjectVersion
1070
     0
  0
VISUALSTYLE
  5
FF
102
{ACAD_REACTORS
330
EF
102
}
330
EF
100
AcDbVisualStyle
  2
ColorChange
 70
    16
 71
     2
 72
     2
 73
     3
 90
        0
 40
-0.6
 41
-30.0
 62
     5
 63
     8
 74
     1
 91
        4
 64
     7
 65
   257
 75
     1
175
     1
 42
1.0
 92
        8
 66
     8
 43
1.0
 76
     1
 77
     6
 78
     2
 67
     7
 79
     5
170
     0
171
     0
290
     0
174
     0
 93
        1
 44
0.0
173
     0
291
     1
 45
0.0
1001
ACAD
1000
AcDbSavedByObjectVersion
1070
     0
  0
VISUALSTYLE
  5
F8
102
{ACAD_REACTORS
330
EF
102
}
330
EF
100
AcDbVisualStyle
  2
Conceptual
 70
     9
 71
     3
 72
     2
 73
     1
 90
        0
 40
-0.6
 41
-30.0
 62
     5
 63
     7
 74
     2
 91
        2
 64
     7
 65
   257
 75
     1
175
     1
 42
40.0
 92
        8
 66
     7
 43
1.0
 76
     1
 77
     6
 78
     2
 67
     7
 79
     3
170
     0
171
     0
290
     0
174
     0
 93
        1
 44
0.0
173
     0
291
     0
 45
0.0
1001
ACAD
1000
AcDbSavedByObjectVersion
1070
     0
  0
VISUALSTYLE
  5
FA
102
{ACAD_REACTORS
330
EF
102
}
330
EF
100
AcDbVisualStyle
  2
Dim
 70
    11
 71
     2
 72
     2
 73
     1
 90
        0
 40
-0.6
 41
-30.0
 62
     5
 63
     7
 74
     1
 91
        4
 64
     7
 65
   257
 75
     1
175
     1
 42
1.0
 92
        8
 66
     7
 43
1.0
 76
     1
 77
     6
 78
     2
 67
     7
 79
     5
170
     0
171
     0
290
     0
174
     0
 93
        1
 44
-50.0
173
     0
291
     1
 45
0.0
1001
ACAD
1000
AcDbSavedByObjectVersion
1070
     0
  0
VISUALSTYLE
  5
FE
102
{ACAD_REACTORS
330
EF
102
}
330
EF
100
AcDbVisualStyle
  2
Facepattern
 70
    15
 71
     2
 72
     2
 73
     1
 90
        0
 40
-0.6
 41
-30.0
 62
     5
 63
     7
 74
     1
 91
        4
 64
     7
 65
   257
 75
     1
175
     1
 42
1.0
 92
        8
 66
     7
 43
1.0
 76
     1
 77
     6
 78
     2
 67
     7
 79
     5
170
     0
171
     0
290
     0
174
     0
 93
        1
 44
0.0
173
     0
291
     1
 45
0.0
1001
ACAD
1000
AcDbSavedByObjectVersion
1070
     0
  0
VISUALSTYLE
  5
F0
102
{ACAD_REACTORS
330
EF
102
}
330
EF
100
AcDbVisualStyle
  2
Flat
 70
     0
 71
     2
 72
     1
 73
     1
 90
        2
 40
-0.6
 41
30.0
 62
     5
 63
     7
 74
     0
 91
        4
 64
     7
 65
   257
 75
     1
175
     1
 42
1.0
 92
        8
 66
     7
 43
1.0
 76
     1
 77
     6
 78
     2
 67
     7
 79
     5
170
     0
171
     0
290
     0
174
     0
 93
        1
 44
0.0
173
     0
291
     1
 45
0.0
1001
ACAD
1000
AcDbSavedByObjectVersion
1070
     0
  0
VISUALSTYLE
  5
F1
102
{ACAD_REACTORS
330
EF
102
}
330
EF
100
AcDbVisualStyle
  2
FlatWithEdges
 70
     1
 71
     2
 72
     1
 73
     1
 90
        2
 40
-0.6
 41
30.0
 62
     5
 63
     7
 74
     1
 91
        4
 64
     7
 65
   257
 75
     1
175
     1
 42
1.0
 92
        0
 66
   257
 43
1.0
 76
     1
 77
     6
 78
     2
 67
     7
 79
     5
170
     0
171
     0
290
     0
174
     0
 93
        1
 44
0.0
173
     0
291
     1
 45
0.0
1001
ACAD
1000
AcDbSavedByObjectVersion
1070
     0
  0
VISUALSTYLE
  5
F2
102
{ACAD_REACTORS
330
EF
102
}
330
EF
100
AcDbVisualStyle
  2
Gouraud
 70
     2
 71
     2
 72
     2
 73
     1
 90
        2
 40
-0.6
 41
30.0
 62
     5
 63
     7
 74
     0
 91
        4
 64
     7
 65
   257
 75
     1
175
     1
 42
1.0
 92
        0
 66
     7
 43
1.0
 76
     1
 77
     6
 78
     2
 67
     7
 79
     5
170
     0
171
     0
290
     0
174
     0
 93
        1
 44
0.0
173
     0
291
     1
 45
0.0
1001
ACAD
1000
AcDbSavedByObjectVersion
1070
     0
  0
VISUALSTYLE
  5
F3
102
{ACAD_REACTORS
330
EF
102
}
330
EF
100
AcDbVisualStyle
  2
GouraudWithEdges
 70
     3
 71
     2
 72
     2
 73
     1
 90
        2
 40
-0.6
 41
30.0
 62
     5
 63
     7
 74
     1
 91
        4
 64
     7
 65
   257
 75
     1
175
     1
 42
1.0
 92
        0
 66
   257
 43
1.0
 76
     1
 77
     6
 78
     2
 67
     7
 79
     5
170
     0
171
     0
290
     0
174
     0
 93
        1
 44
0.0
173
     0
291
     1
 45
0.0
1001
ACAD
1000
AcDbSavedByObjectVersion
1070
     0
  0
VISUALSTYLE
  5
FD
102
{ACAD_REACTORS
330
EF
102
}
330
EF
100
AcDbVisualStyle
  2
Linepattern
 70
    14
 71
     2
 72
     2
 73
     1
 90
        0
 40
-0.6
 41
-30.0
 62
     5
 63
     7
 74
     1
 91
        4
 64
     7
 65
   257
 75
     7
175
     7
 42
1.0
 92
        8
 66
     7
 43
1.0
 76
     1
 77
     6
 78
     2
 67
     7
 79
     5
170
     0
171
     0
290
     0
174
     0
 93
        1
 44
0.0
173
     0
291
     1
 45
0.0
1001
ACAD
1000
AcDbSavedByObjectVersion
1070
     0
  0
VISUALSTYLE
  5
F9
102
{ACAD_REACTORS
330
EF
102
}
330
EF
100
AcDbVisualStyle
  2
Realistic
 70
     8
 71
     2
 72
     2
 73
     1
 90
        0
 40
-0.6
 41
-30.0
 62
     5
 63
     7
 74
     1
 91
        0
 64
     7
 65
   257
 75
     1
175
     1
 42
1.0
 92
        8
 66
     8
 43
1.0
 76
     1
 77
     6
 78
     2
 67
     7
 79
     5
170
     0
171
     0
290
     0
174
     0
 93
       13
 44
0.0
173
     0
291
     0
 45
0.0
1001
ACAD
1000
AcDbSavedByObjectVersion
1070
     0
  0
VISUALSTYLE
  5
FC
102
{ACAD_REACTORS
330
EF
102
}
330
EF
100
AcDbVisualStyle
  2
Thicken
 70
    13
 71
     2
 72
     2
 73
     1
 90
        0
 40
-0.6
 41
-30.0
 62
     5
 63
     7
 74
     1
 91
        4
 64
     7
 65
   257
 75
     1
175
     1
 42
1.0
 92
       12
 66
     7
 43
1.0
 76
     1
 77
     6
 78
     2
 67
     7
 79
     5
170
     0
171
     0
290
     0
174
     0
 93
        1
 44
0.0
173
     0
291
     1
 45
0.0
1001
ACAD
1000
AcDbSavedByObjectVersion
1070
     0
  0
DICTIONARYVAR
  5
146
102
{ACAD_REACTORS
330
5E
102
}
330
5E
100
DictionaryVariables
280
     0
  1
1:1
  0
DICTIONARYVAR
  5
145
102
{ACAD_REACTORS
330
5E
102
}
330
5E
100
DictionaryVariables
280
     0
  1
STANDARD
  0
DICTIONARYVAR
  5
84
102
{ACAD_REACTORS
330
5E
102
}
330
5E
100
DictionaryVariables
280
     0
  1
STANDARD
  0
DICTIONARYVAR
  5
5F
102
{ACAD_REACTORS
330
5E
102
}
330
5E
100
DictionaryVariables
280
     0
  1
2
  0
DICTIONARYVAR
  5
63
102
{ACAD_REACTORS
330
5E
102
}
330
5E
100
DictionaryVariables
280
     0
  1
1
  0
DICTIONARYVAR
  5
9D4
102
{ACAD_REACTORS
330
5E
102
}
330
5E
100
DictionaryVariables
280
     0
  1
0
  0
DICTIONARYVAR
  5
9D2
102
{ACAD_REACTORS
330
5E
102
}
330
5E
100
DictionaryVariables
280
     0
  1
2
  0
DICTIONARYVAR
  5
9D1
102
{ACAD_REACTORS
330
5E
102
}
330
5E
100
DictionaryVariables
280
     0
  1
1
  0
DICTIONARYVAR
  5
9D6
102
{ACAD_REACTORS
330
5E
102
}
330
5E
100
DictionaryVariables
280
     0
  1
80.000000
  0
DICTIONARYVAR
  5
9D5
102
{ACAD_REACTORS
330
5E
102
}
330
5E
100
DictionaryVariables
280
     0
  1
5.000000
  0
DICTIONARYVAR
  5
9D3
102
{ACAD_REACTORS
330
5E
102
}
330
5E
100
DictionaryVariables
280
     0
  1
127
  0
DICTIONARY
  5
9DC
330
D3
100
AcDbDictionary
280
     1
281
     1
  3
ACAD_XREC_ROUNDTRIP
360
9DD
  0
DICTIONARY
  5
9D9
330
22
100
AcDbDictionary
280
     1
281
     1
  3
ACAD_XREC_ROUNDTRIP
360
9DA
  0
DICTIONARY
  5
9E0
330
ED
100
AcDbDictionary
280
     1
281
     1
  3
ACAD_XREC_ROUNDTRIP
360
9E1
  0
DICTIONARY
  5
9DE
330
EC
100
AcDbDictionary
280
     1
281
     1
  3
ACAD_XREC_ROUNDTRIP
360
9DF
  0
DICTIONARY
  5
173
330
EE
100
AcDbDictionary
280
     1
281
     1
  3
ACAD_XREC_ROUNDTRIP
360
9E2
  3
BUMPTILE
360
175
  3
DIFFUSETILE
360
174
  3
OPACITYTILE
360
176
  3
REFLECTIONTILE
360
177
  0
DICTIONARY
  5
162
330
7F
100
AcDbDictionary
280
     1
281
     1
  3
ACAD_ROUNDTRIP_2008_TABLESTYLE_CELLSTYLEMAP
360
9D7
  3
ACAD_XREC_ROUNDTRIP
360
9DB
  0
XRECORD
  5
9DD
102
{ACAD_REACTORS
330
9DC
102
}
330
9DC
100
AcDbXrecord
280
     1
102
SHADEPLOT
 70
     0
102
SHADEPLOTRESLEVEL
 70
     2
102
SHADEPLOTCUSTOMDPI
 70
   300
  0
XRECORD
  5
9DA
102
{ACAD_REACTORS
330
9D9
102
}
330
9D9
100
AcDbXrecord
280
     1
102
SHADEPLOT
 70
     0
102
SHADEPLOTRESLEVEL
 70
     2
102
SHADEPLOTCUSTOMDPI
 70
   300
  0
XRECORD
  5
9E1
102
{ACAD_REACTORS
330
9E0
102
}
330
9E0
100
AcDbXrecord
280
     1
102
MATERIAL
148
0.0
149
0.0
149
0.0
 93
        0
 94
       63
282
     0
 72
     1
 77
     1
171
     1
175
     1
179
     1
273
     0
  0
XRECORD
  5
9DF
102
{ACAD_REACTORS
330
9DE
102
}
330
9DE
100
AcDbXrecord
280
     1
102
MATERIAL
148
0.0
149
0.0
149
0.0
 93
        0
 94
       63
282
     0
 72
     1
 77
     1
171
     1
175
     1
179
     1
273
     0
  0
XRECORD
  5
9E2
102
{ACAD_REACTORS
330
173
102
}
330
173
100
AcDbXrecord
280
     1
102
MATERIAL
148
0.0
149
0.0
149
0.0
 93
        0
 94
       63
282
     0
 72
     1
 77
     1
171
     1
175
     1
179
     1
273
     0
  0
XRECORD
  5
175
102
{ACAD_REACTORS
330
173
102
}
330
173
100
AcDbXrecord
280
     1
270
     1
271
     1
  0
XRECORD
  5
174
102
{ACAD_REACTORS
330
173
102
}
330
173
100
AcDbXrecord
280
     1
270
     1
271
     1
  0
XRECORD
  5
176
102
{ACAD_REACTORS
330
173
102
}
330
173
100
AcDbXrecord
280
     1
270
     1
271
     1
  0
XRECORD
  5
177
102
{ACAD_REACTORS
330
173
102
}
330
173
100
AcDbXrecord
280
     1
270
     1
271
     1
  0
CELLSTYLEMAP
  5
9D7
102
{ACAD_REACTORS
330
162
102
}
330
162
100
AcDbCellStyleMap
 90
        3
300
CELLSTYLE
  1
TABLEFORMAT_BEGIN
 90
        5
170
     1
 91
        0
 92
    32768
 62
   257
 93
        1
300
CONTENTFORMAT
  1
CONTENTFORMAT_BEGIN
 90
        0
 91
        0
 92
      512
 93
        0
300

 40
0.0
140
1.0
 94
        5
 62
     0
340
11
144
6.0
309
CONTENTFORMAT_END
171
     1
301
MARGIN
  1
CELLMARGIN_BEGIN
 40
1.5
 40
1.5
 40
1.5
 40
1.5
 40
4.5
 40
4.5
309
CELLMARGIN_END
 94
        6
 95
        1
302
GRIDFORMAT
  1
GRIDFORMAT_BEGIN
 90
        0
 91
        1
 62
     0
 92
       -2
340
14
 93
        0
 40
1.125
309
GRIDFORMAT_END
 95
        2
302
GRIDFORMAT
  1
GRIDFORMAT_BEGIN
 90
        0
 91
        1
 62
     0
 92
       -2
340
14
 93
        0
 40
1.125
309
GRIDFORMAT_END
 95
        4
302
GRIDFORMAT
  1
GRIDFORMAT_BEGIN
 90
        0
 91
        1
 62
     0
 92
       -2
340
14
 93
        0
 40
1.125
309
GRIDFORMAT_END
 95
        8
302
GRIDFORMAT
  1
GRIDFORMAT_BEGIN
 90
        0
 91
        1
 62
     0
 92
       -2
340
14
 93
        0
 40
1.125
309
GRIDFORMAT_END
 95
       16
302
GRIDFORMAT
  1
GRIDFORMAT_BEGIN
 90
        0
 91
        1
 62
     0
 92
       -2
340
14
 93
        0
 40
1.125
309
GRIDFORMAT_END
 95
       32
302
GRIDFORMAT
  1
GRIDFORMAT_BEGIN
 90
        0
 91
        1
 62
     0
 92
       -2
340
14
 93
        0
 40
1.125
309
GRIDFORMAT_END
309
TABLEFORMAT_END
  1
CELLSTYLE_BEGIN
 90
        1
 91
        1
300
_TITLE
309
CELLSTYLE_END
300
CELLSTYLE
  1
TABLEFORMAT_BEGIN
 90
        5
170
     1
 91
        0
 92
        0
 62
   257
 93
        1
300
CONTENTFORMAT
  1
CONTENTFORMAT_BEGIN
 90
        0
 91
        0
 92
      512
 93
        0
300

 40
0.0
140
1.0
 94
        5
 62
     0
340
11
144
4.5
309
CONTENTFORMAT_END
171
     1
301
MARGIN
  1
CELLMARGIN_BEGIN
 40
1.5
 40
1.5
 40
1.5
 40
1.5
 40
4.5
 40
4.5
309
CELLMARGIN_END
 94
        6
 95
        1
302
GRIDFORMAT
  1
GRIDFORMAT_BEGIN
 90
        0
 91
        1
 62
     0
 92
       -2
340
14
 93
        0
 40
1.125
309
GRIDFORMAT_END
 95
        2
302
GRIDFORMAT
  1
GRIDFORMAT_BEGIN
 90
        0
 91
        1
 62
     0
 92
       -2
340
14
 93
        0
 40
1.125
309
GRIDFORMAT_END
 95
        4
302
GRIDFORMAT
  1
GRIDFORMAT_BEGIN
 90
        0
 91
        1
 62
     0
 92
       -2
340
14
 93
        0
 40
1.125
309
GRIDFORMAT_END
 95
        8
302
GRIDFORMAT
  1
GRIDFORMAT_BEGIN
 90
        0
 91
        1
 62
     0
 92
       -2
340
14
 93
        0
 40
1.125
309
GRIDFORMAT_END
 95
       16
302
GRIDFORMAT
  1
GRIDFORMAT_BEGIN
 90
        0
 91
        1
 62
     0
 92
       -2
340
14
 93
        0
 40
1.125
309
GRIDFORMAT_END
 95
       32
302
GRIDFORMAT
  1
GRIDFORMAT_BEGIN
 90
        0
 91
        1
 62
     0
 92
       -2
340
14
 93
        0
 40
1.125
309
GRIDFORMAT_END
309
TABLEFORMAT_END
  1
CELLSTYLE_BEGIN
 90
        2
 91
        1
300
_HEADER
309
CELLSTYLE_END
300
CELLSTYLE
  1
TABLEFORMAT_BEGIN
 90
        5
170
     1
 91
        0
 92
        0
 62
   257
 93
        1
300
CONTENTFORMAT
  1
CONTENTFORMAT_BEGIN
 90
        0
 91
        0
 92
      512
 93
        0
300

 40
0.0
140
1.0
 94
        2
 62
     0
340
11
144
4.5
309
CONTENTFORMAT_END
171
     1
301
MARGIN
  1
CELLMARGIN_BEGIN
 40
1.5
 40
1.5
 40
1.5
 40
1.5
 40
4.5
 40
4.5
309
CELLMARGIN_END
 94
        6
 95
        1
302
GRIDFORMAT
  1
GRIDFORMAT_BEGIN
 90
        0
 91
        1
 62
     0
 92
       -2
340
14
 93
        0
 40
1.125
309
GRIDFORMAT_END
 95
        2
302
GRIDFORMAT
  1
GRIDFORMAT_BEGIN
 90
        0
 91
        1
 62
     0
 92
       -2
340
14
 93
        0
 40
1.125
309
GRIDFORMAT_END
 95
        4
302
GRIDFORMAT
  1
GRIDFORMAT_BEGIN
 90
        0
 91
        1
 62
     0
 92
       -2
340
14
 93
        0
 40
1.125
309
GRIDFORMAT_END
 95
        8
302
GRIDFORMAT
  1
GRIDFORMAT_BEGIN
 90
        0
 91
        1
 62
     0
 92
       -2
340
14
 93
        0
 40
1.125
309
GRIDFORMAT_END
 95
       16
302
GRIDFORMAT
  1
GRIDFORMAT_BEGIN
 90
        0
 91
        1
 62
     0
 92
       -2
340
14
 93
        0
 40
1.125
309
GRIDFORMAT_END
 95
       32
302
GRIDFORMAT
  1
GRIDFORMAT_BEGIN
 90
        0
 91
        1
 62
     0
 92
       -2
340
14
 93
        0
 40
1.125
309
GRIDFORMAT_END
309
TABLEFORMAT_END
  1
CELLSTYLE_BEGIN
 90
        3
 91
        2
300
_DATA
309
CELLSTYLE_END
  0
XRECORD
  5
9DB
102
{ACAD_REACTORS
330
162
102
}
330
162
100
AcDbXrecord
280
     1
102
ACAD_ROUNDTRIP_PRE2007_TABLESTYLE
 90
      512
 91
        0
  1

 92
      512
 93
        0
  2

 94
      512
 95
        0
  3

  0
ENDSEC
  0
EOF
