  0
SECTION
  2
HEADER
  9
$ACADVER
  1
AC1015
  9
$ACADMAINTVER
 70
    20
  9
$DWGCODEPAGE
  3
ANSI_1252
  9
$INSBASE
 10
678.5895638617294
 20
501.7101785743496
 30
0.0
  9
$EXTMIN
 10
645.4064958698658
 20
466.8858502340571
 30
-0.0015258207003583
  9
$EXTMAX
 10
765.6335463021341
 20
571.7530985455414
 30
0.0000000349246037
  9
$LIMMIN
 10
0.0
 20
0.0
  9
$LIMMAX
 10
420.0
 20
297.0
  9
$ORTHOMODE
 70
     1
  9
$REGENMODE
 70
     1
  9
$FILLMODE
 70
     1
  9
$QTEXTMODE
 70
     0
  9
$MIRRTEXT
 70
     0
  9
$LTSCALE
 40
1.0
  9
$ATTMODE
 70
     1
  9
$TEXTSIZE
 40
2.5
  9
$TRACEWID
 40
1.0
  9
$TEXTSTYLE
  7
Standard
  9
$CLAYER
  8
0
  9
$CELTYPE
  6
ByLayer
  9
$CECOLOR
 62
   256
  9
$CELTSCALE
 40
1.0
  9
$DISPSILH
 70
     0
  9
$DIMSCALE
 40
1.0
  9
$DIMASZ
 40
2.5
  9
$DIMEXO
 40
0.625
  9
$DIMDLI
 40
3.75
  9
$DIMRND
 40
0.0
  9
$DIMDLE
 40
0.0
  9
$DIMEXE
 40
1.25
  9
$DIMTP
 40
0.0
  9
$DIMTM
 40
0.0
  9
$DIMTXT
 40
2.5
  9
$DIMCEN
 40
2.5
  9
$DIMTSZ
 40
0.0
  9
$DIMTOL
 70
     0
  9
$DIMLIM
 70
     0
  9
$DIMTIH
 70
     0
  9
$DIMTOH
 70
     0
  9
$DIMSE1
 70
     0
  9
$DIMSE2
 70
     0
  9
$DIMTAD
 70
     1
  9
$DIMZIN
 70
     8
  9
$DIMBLK
  1

  9
$DIMASO
 70
     1
  9
$DIMSHO
 70
     1
  9
$DIMPOST
  1

  9
$DIMAPOST
  1

  9
$DIMALT
 70
     0
  9
$DIMALTD
 70
     3
  9
$DIMALTF
 40
0.03937007874016
  9
$DIMLFAC
 40
1.0
  9
$DIMTOFL
 70
     1
  9
$DIMTVP
 40
0.0
  9
$DIMTIX
 70
     0
  9
$DIMSOXD
 70
     0
  9
$DIMSAH
 70
     0
  9
$DIMBLK1
  1

  9
$DIMBLK2
  1

  9
$DIMSTYLE
  2
ISO-25
  9
$DIMCLRD
 70
     0
  9
$DIMCLRE
 70
     0
  9
$DIMCLRT
 70
     0
  9
$DIMTFAC
 40
1.0
  9
$DIMGAP
 40
0.625
  9
$DIMJUST
 70
     0
  9
$DIMSD1
 70
     0
  9
$DIMSD2
 70
     0
  9
$DIMTOLJ
 70
     0
  9
$DIMTZIN
 70
     8
  9
$DIMALTZ
 70
     0
  9
$DIMALTTZ
 70
     0
  9
$DIMUPT
 70
     0
  9
$DIMDEC
 70
     0
  9
$DIMTDEC
 70
     0
  9
$DIMALTU
 70
     2
  9
$DIMALTTD
 70
     3
  9
$DIMTXSTY
  7
Standard
  9
$DIMAUNIT
 70
     0
  9
$DIMADEC
 70
     0
  9
$DIMALTRND
 40
0.0
  9
$DIMAZIN
 70
     0
  9
$DIMDSEP
 70
    44
  9
$DIMATFIT
 70
     3
  9
$DIMFRAC
 70
     0
  9
$DIMLDRBLK
  1

  9
$DIMLUNIT
 70
     2
  9
$DIMLWD
 70
    -2
  9
$DIMLWE
 70
    -2
  9
$DIMTMOVE
 70
     0
  9
$LUNITS
 70
     2
  9
$LUPREC
 70
     1
  9
$SKETCHINC
 40
1.0
  9
$FILLETRAD
 40
0.0
  9
$AUNITS
 70
     0
  9
$AUPREC
 70
     0
  9
$MENU
  1
.
  9
$ELEVATION
 40
0.0
  9
$PELEVATION
 40
0.0
  9
$THICKNESS
 40
0.0
  9
$LIMCHECK
 70
     0
  9
$CHAMFERA
 40
0.0
  9
$CHAMFERB
 40
0.0
  9
$CHAMFERC
 40
0.0
  9
$CHAMFERD
 40
0.0
  9
$SKPOLY
 70
     0
  9
$TDCREATE
 40
2456671.674003183
  9
$TDUCREATE
 40
2456671.236503183
  9
$TDUPDATE
 40
2456671.686411667
  9
$TDUUPDATE
 40
2456671.248911667
  9
$TDINDWG
 40
0.0124086690
  9
$TDUSRTIMER
 40
0.0124086690
  9
$USRTIMER
 70
     1
  9
$ANGBASE
 50
0.0
  9
$ANGDIR
 70
     0
  9
$PDMODE
 70
     0
  9
$PDSIZE
 40
0.0
  9
$PLINEWID
 40
0.0
  9
$SPLFRAME
 70
     0
  9
$SPLINETYPE
 70
     6
  9
$SPLINESEGS
 70
     8
  9
$HANDSEED
  5
6FE
  9
$SURFTAB1
 70
     6
  9
$SURFTAB2
 70
     6
  9
$SURFTYPE
 70
     6
  9
$SURFU
 70
     6
  9
$SURFV
 70
     6
  9
$UCSBASE
  2

  9
$UCSNAME
  2

  9
$UCSORG
 10
0.0
 20
0.0
 30
0.0
  9
$UCSXDIR
 10
1.0
 20
0.0
 30
0.0
  9
$UCSYDIR
 10
0.0
 20
1.0
 30
0.0
  9
$UCSORTHOREF
  2

  9
$UCSORTHOVIEW
 70
     0
  9
$UCSORGTOP
 10
0.0
 20
0.0
 30
0.0
  9
$UCSORGBOTTOM
 10
0.0
 20
0.0
 30
0.0
  9
$UCSORGLEFT
 10
0.0
 20
0.0
 30
0.0
  9
$UCSORGRIGHT
 10
0.0
 20
0.0
 30
0.0
  9
$UCSORGFRONT
 10
0.0
 20
0.0
 30
0.0
  9
$UCSORGBACK
 10
0.0
 20
0.0
 30
0.0
  9
$PUCSBASE
  2

  9
$PUCSNAME
  2

  9
$PUCSORG
 10
0.0
 20
0.0
 30
0.0
  9
$PUCSXDIR
 10
1.0
 20
0.0
 30
0.0
  9
$PUCSYDIR
 10
0.0
 20
1.0
 30
0.0
  9
$PUCSORTHOREF
  2

  9
$PUCSORTHOVIEW
 70
     0
  9
$PUCSORGTOP
 10
0.0
 20
0.0
 30
0.0
  9
$PUCSORGBOTTOM
 10
0.0
 20
0.0
 30
0.0
  9
$PUCSORGLEFT
 10
0.0
 20
0.0
 30
0.0
  9
$PUCSORGRIGHT
 10
0.0
 20
0.0
 30
0.0
  9
$PUCSORGFRONT
 10
0.0
 20
0.0
 30
0.0
  9
$PUCSORGBACK
 10
0.0
 20
0.0
 30
0.0
  9
$USERI1
 70
     0
  9
$USERI2
 70
     0
  9
$USERI3
 70
     0
  9
$USERI4
 70
     0
  9
$USERI5
 70
     0
  9
$USERR1
 40
0.0
  9
$USERR2
 40
0.0
  9
$USERR3
 40
0.0
  9
$USERR4
 40
0.0
  9
$USERR5
 40
0.0
  9
$WORLDVIEW
 70
     1
  9
$SHADEDGE
 70
     3
  9
$SHADEDIF
 70
    70
  9
$TILEMODE
 70
     1
  9
$MAXACTVP
 70
    64
  9
$PINSBASE
 10
0.0
 20
0.0
 30
0.0
  9
$PLIMCHECK
 70
     0
  9
$PEXTMIN
 10
0.0
 20
0.0
 30
0.0
  9
$PEXTMAX
 10
0.0
 20
0.0
 30
0.0
  9
$PLIMMIN
 10
0.0
 20
0.0
  9
$PLIMMAX
 10
12.0
 20
9.0
  9
$UNITMODE
 70
     0
  9
$VISRETAIN
 70
     1
  9
$PLINEGEN
 70
     0
  9
$PSLTSCALE
 70
     1
  9
$TREEDEPTH
 70
  3020
  9
$CMLSTYLE
  2
Standard
  9
$CMLJUST
 70
     0
  9
$CMLSCALE
 40
20.0
  9
$PROXYGRAPHICS
 70
     1
  9
$MEASUREMENT
 70
     1
  9
$CELWEIGHT
370
    -1
  9
$ENDCAPS
280
     0
  9
$JOINSTYLE
280
     0
  9
$LWDISPLAY
290
     0
  9
$INSUNITS
 70
     4
  9
$HYPERLINKBASE
  1

  9
$STYLESHEET
  1

  9
$XEDIT
290
     1
  9
$CEPSNTYPE
380
     0
  9
$PSTYLEMODE
290
     1
  9
$FINGERPRINTGUID
  2
{07E4EC95-85DA-4736-B2B9-0BAF4F7A06EA}
  9
$VERSIONGUID
  2
{E054E207-E9DB-458C-BFCD-5685E3D90DA1}
  9
$EXTNAMES
290
     1
  9
$PSVPSCALE
 40
0.0
  9
$OLESTARTUP
290
     0
  0
ENDSEC
  0
SECTION
  2
CLASSES
  0
CLASS
  1
ACDBDICTIONARYWDFLT
  2
AcDbDictionaryWithDefault
  3
ObjectDBX Classes
 90
        0
280
     0
281
     0
  0
CLASS
  1
ACDBPLACEHOLDER
  2
AcDbPlaceHolder
  3
ObjectDBX Classes
 90
        0
280
     0
281
     0
  0
CLASS
  1
LAYOUT
  2
AcDbLayout
  3
ObjectDBX Classes
 90
        0
280
     0
281
     0
  0
CLASS
  1
DICTIONARYVAR
  2
AcDbDictionaryVar
  3
ObjectDBX Classes
 90
        0
280
     0
281
     0
  0
CLASS
  1
TABLESTYLE
  2
AcDbTableStyle
  3
ObjectDBX Classes
 90
     2047
280
     0
281
     0
  0
CLASS
  1
SORTENTSTABLE
  2
AcDbSortentsTable
  3
ObjectDBX Classes
 90
        0
280
     0
281
     0
  0
CLASS
  1
DIMASSOC
  2
AcDbDimAssoc
  3
"AcDbDimAssoc|Product Desc:     AcDim ARX App For Dimension|Company:          Autodesk, Inc.|WEB Address:      www.autodesk.com"
 90
        0
280
     0
281
     0
  0
ENDSEC
  0
SECTION
  2
TABLES
  0
TABLE
  2
VPORT
  5
8
330
0
100
AcDbSymbolTable
 70
     7
  0
VPORT
  5
6F5
330
8
100
AcDbSymbolTableRecord
100
AcDbViewportTableRecord
  2
*Active
 70
     0
 10
0.0
 20
0.0
 11
1.0
 21
1.0
 12
702.4518796423414
 22
519.2205358143617
 13
0.0
 23
0.0
 14
10.0
 24
10.0
 15
10.0
 25
10.0
 16
0.0
 26
0.0
 36
1.0
 17
0.0
 27
0.0
 37
0.0
 40
118.4190771591739
 41
1.85901309164149
 42
50.0
 43
0.0
 44
0.0
 50
0.0
 51
0.0
 71
     0
 72
  1000
 73
     1
 74
     3
 75
     0
 76
     0
 77
     0
 78
     0
281
     0
 65
     1
110
0.0
120
0.0
130
0.0
111
1.0
121
0.0
131
0.0
112
0.0
122
1.0
132
0.0
 79
     0
146
0.0
  0
ENDTAB
  0
TABLE
  2
LTYPE
  5
5
330
0
100
AcDbSymbolTable
 70
     2
  0
LTYPE
  5
14
330
5
100
AcDbSymbolTableRecord
100
AcDbLinetypeTableRecord
  2
ByBlock
 70
     0
  3

 72
    65
 73
     0
 40
0.0
  0
LTYPE
  5
15
330
5
100
AcDbSymbolTableRecord
100
AcDbLinetypeTableRecord
  2
ByLayer
 70
     0
  3

 72
    65
 73
     0
 40
0.0
  0
LTYPE
  5
16
330
5
100
AcDbSymbolTableRecord
100
AcDbLinetypeTableRecord
  2
Continuous
 70
     0
  3
Solid line
 72
    65
 73
     0
 40
0.0
  0
ENDTAB
  0
TABLE
  2
LAYER
  5
2
102
{ACAD_XDICTIONARY
360
EB
102
}
330
0
100
AcDbSymbolTable
 70
     4
  0
LAYER
  5
10
330
2
100
AcDbSymbolTableRecord
100
AcDbLayerTableRecord
  2
0
 70
     0
 62
     7
  6
Continuous
370
    -3
390
F
  0
LAYER
  5
E5
102
{ACAD_XDICTIONARY
360
E6
102
}
330
2
100
AcDbSymbolTableRecord
100
AcDbLayerTableRecord
  2
DIM
 70
     0
 62
     3
  6
Continuous
370
    -3
390
F
  0
LAYER
  5
15A
330
2
100
AcDbSymbolTableRecord
100
AcDbLayerTableRecord
  2
Defpoints
 70
     0
 62
     7
  6
Continuous
290
     0
370
    -3
390
F
  0
ENDTAB
  0
TABLE
  2
STYLE
  5
3
330
0
100
AcDbSymbolTable
 70
     2
  0
STYLE
  5
11
330
3
100
AcDbSymbolTableRecord
100
AcDbTextStyleTableRecord
  2
Standard
 70
     0
 40
0.0
 41
1.0
 50
0.0
 71
     0
 42
2.5
  3
txt
  4

  0
STYLE
  5
E9
330
3
100
AcDbSymbolTableRecord
100
AcDbTextStyleTableRecord
  2
ISO3098B
 70
     0
 40
0.0
 41
1.0
 50
0.0
 71
     0
 42
3.5
  3
ISO3098B.SHX
  4

  0
ENDTAB
  0
TABLE
  2
VIEW
  5
6
330
0
100
AcDbSymbolTable
 70
     0
  0
ENDTAB
  0
TABLE
  2
UCS
  5
7
330
0
100
AcDbSymbolTable
 70
     0
  0
ENDTAB
  0
TABLE
  2
APPID
  5
9
330
0
100
AcDbSymbolTable
 70
    11
  0
APPID
  5
12
330
9
100
AcDbSymbolTableRecord
100
AcDbRegAppTableRecord
  2
ACAD
 70
     0
  0
APPID
  5
9E
330
9
100
AcDbSymbolTableRecord
100
AcDbRegAppTableRecord
  2
ACAD_PSEXT
 70
     0
  0
APPID
  5
1CC
330
9
100
AcDbSymbolTableRecord
100
AcDbRegAppTableRecord
  2
ACAD_EXEMPT_FROM_CAD_STANDARDS
 70
     0
  0
APPID
  5
225
330
9
100
AcDbSymbolTableRecord
100
AcDbRegAppTableRecord
  2
ACAD_DSTYLE_DIMTEXT_FILL
 70
     0
  0
APPID
  5
226
330
9
100
AcDbSymbolTableRecord
100
AcDbRegAppTableRecord
  2
ACAD_DSTYLE_DIMEXT_LENGTH
 70
     0
  0
APPID
  5
227
330
9
100
AcDbSymbolTableRecord
100
AcDbRegAppTableRecord
  2
ACAD_DSTYLE_DIMEXT_ENABLED
 70
     0
  0
APPID
  5
228
330
9
100
AcDbSymbolTableRecord
100
AcDbRegAppTableRecord
  2
ACAD_DSTYLE_DIM_LINETYPE
 70
     0
  0
APPID
  5
229
330
9
100
AcDbSymbolTableRecord
100
AcDbRegAppTableRecord
  2
ACAD_DSTYLE_DIM_EXT1_LINETYPE
 70
     0
  0
APPID
  5
22A
330
9
100
AcDbSymbolTableRecord
100
AcDbRegAppTableRecord
  2
ACAD_DSTYLE_DIM_EXT2_LINETYPE
 70
     0
  0
APPID
  5
2E6
330
9
100
AcDbSymbolTableRecord
100
AcDbRegAppTableRecord
  2
ACAD_DSTYLE_DIMJOGGED_JOGANGLE_SYMBOL
 70
     0
  0
APPID
  5
34A
330
9
100
AcDbSymbolTableRecord
100
AcDbRegAppTableRecord
  2
ACAD_DSTYLE_DIMARC_LENGTH_SYMBOL
 70
     0
  0
ENDTAB
  0
TABLE
  2
DIMSTYLE
  5
A
330
0
100
AcDbSymbolTable
 70
     3
100
AcDbDimStyleTable
 71
     1
340
27
  0
DIMSTYLE
105
27
102
{ACAD_REACTORS
330
159
330
172
330
18A
330
1D3
102
}
330
A
100
AcDbSymbolTableRecord
100
AcDbDimStyleTableRecord
  2
ISO-25
 70
     0
 41
2.5
 42
0.625
 43
3.75
 44
1.25
 73
     0
 74
     0
 77
     1
 78
     8
140
2.5
141
2.5
143
0.03937007874016
147
0.625
171
     3
172
     1
271
     1
272
     1
274
     3
278
    44
283
     0
284
     8
340
11
1001
ACAD_DSTYLE_DIMEXT_LENGTH
1070
   378
1040
1.25
1001
ACAD_DSTYLE_DIMEXT_ENABLED
1070
   383
1070
     0
1001
ACAD_DSTYLE_DIMARC_LENGTH_SYMBOL
1070
   379
1070
     0
1001
ACAD_DSTYLE_DIMJOGGED_JOGANGLE_SYMBOL
1070
   384
1040
1.570796326794896
  0
ENDTAB
  0
TABLE
  2
BLOCK_RECORD
  5
1
330
0
100
AcDbSymbolTable
 70
     7
  0
BLOCK_RECORD
  5
1F
102
{ACAD_XDICTIONARY
360
1A4
102
}
330
1
100
AcDbSymbolTableRecord
100
AcDbBlockTableRecord
  2
*Model_Space
340
22
  0
BLOCK_RECORD
  5
D2
330
1
100
AcDbSymbolTableRecord
100
AcDbBlockTableRecord
  2
*Paper_Space
340
D3
  0
BLOCK_RECORD
  5
D6
330
1
100
AcDbSymbolTableRecord
100
AcDbBlockTableRecord
  2
*Paper_Space0
340
D7
  0
BLOCK_RECORD
  5
15B
330
1
100
AcDbSymbolTableRecord
100
AcDbBlockTableRecord
  2
*D2
340
0
  0
BLOCK_RECORD
  5
173
330
1
100
AcDbSymbolTableRecord
100
AcDbBlockTableRecord
  2
*D3
340
0
  0
BLOCK_RECORD
  5
18B
330
1
100
AcDbSymbolTableRecord
100
AcDbBlockTableRecord
  2
*D4
340
0
  0
BLOCK_RECORD
  5
1D4
330
1
100
AcDbSymbolTableRecord
100
AcDbBlockTableRecord
  2
*D6
340
0
  0
ENDTAB
  0
ENDSEC
  0
SECTION
  2
BLOCKS
  0
BLOCK
  5
20
330
1F
100
AcDbEntity
  8
0
100
AcDbBlockBegin
  2
*Model_Space
 70
     0
 10
0.0
 20
0.0
 30
0.0
  3
*Model_Space
  1

  0
ENDBLK
  5
21
330
1F
100
AcDbEntity
  8
0
100
AcDbBlockEnd
  0
BLOCK
  5
D4
330
D2
100
AcDbEntity
 67
     1
  8
0
100
AcDbBlockBegin
  2
*Paper_Space
 70
     0
 10
0.0
 20
0.0
 30
0.0
  3
*Paper_Space
  1

  0
ENDBLK
  5
D5
330
D2
100
AcDbEntity
 67
     1
  8
0
100
AcDbBlockEnd
  0
BLOCK
  5
D8
330
D6
100
AcDbEntity
 67
     1
  8
0
100
AcDbBlockBegin
  2
*Paper_Space0
 70
     0
 10
0.0
 20
0.0
 30
0.0
  3
*Paper_Space0
  1

  0
ENDBLK
  5
D9
330
D6
100
AcDbEntity
 67
     1
  8
0
100
AcDbBlockEnd
  0
BLOCK
  5
165
330
15B
100
AcDbEntity
  8
0
100
AcDbBlockBegin
  2
*D2
 70
     1
 10
0.0
 20
0.0
 30
0.0
  3
*D2
  1

  0
LINE
  5
4FE
330
15B
100
AcDbEntity
  8
DIM
 62
     0
370
    -2
100
AcDbLine
 10
696.1285976921811
 20
561.5637529801915
 30
0.0
 11
696.1285976921811
 21
569.4574017979623
 31
0.0
  0
LINE
  5
4FF
330
15B
100
AcDbEntity
  8
DIM
 62
     0
370
    -2
100
AcDbLine
 10
732.628597692181
 20
561.5637529801915
 30
0.0
 11
732.628597692181
 21
569.4574017979623
 31
0.0
  0
LINE
  5
500
330
15B
100
AcDbEntity
  8
DIM
 62
     0
370
    -2
100
AcDbLine
 10
698.628597692181
 20
568.2074017979623
 30
0.0
 11
730.1285976921811
 21
568.2074017979623
 31
0.0
  0
SOLID
  5
501
330
15B
100
AcDbEntity
  8
DIM
 62
     0
100
AcDbTrace
 10
698.628597692181
 20
568.6240684646289
 30
0.0
 11
698.628597692181
 21
567.7907351312957
 31
0.0
 12
696.1285976921811
 22
568.2074017979623
 32
0.0
 13
696.1285976921811
 23
568.2074017979623
 33
0.0
  0
SOLID
  5
502
330
15B
100
AcDbEntity
  8
DIM
 62
     0
100
AcDbTrace
 10
730.1285976921811
 20
568.6240684646289
 30
0.0
 11
730.1285976921811
 21
567.7907351312957
 31
0.0
 12
732.628597692181
 22
568.2074017979623
 32
0.0
 13
732.628597692181
 23
568.2074017979623
 33
0.0
  0
MTEXT
  5
503
330
15B
100
AcDbEntity
  8
DIM
 62
     0
100
AcDbMText
 10
714.3785976921811
 20
570.2907351312957
 30
0.0
 40
2.5
 41
0.0
 71
     5
 72
     1
  1
36,5
 73
     1
 44
1.0
1001
ACAD
1000
MTEXTBEGIN
1070
    73
1070
     1
1070
    44
1040
1.0
1070
    74
1070
     0
1000
MTEXTEND
  0
POINT
  5
504
330
15B
100
AcDbEntity
  8
Defpoints
 62
     0
100
AcDbPoint
 10
696.1285976921811
 20
560.9387529801916
 30
0.0
  0
POINT
  5
505
330
15B
100
AcDbEntity
  8
Defpoints
 62
     0
100
AcDbPoint
 10
732.628597692181
 20
560.9387529801916
 30
0.0
  0
POINT
  5
506
330
15B
100
AcDbEntity
  8
Defpoints
 62
     0
100
AcDbPoint
 10
732.628597692181
 20
568.2074017979623
 30
0.0
  0
ENDBLK
  5
166
330
15B
100
AcDbEntity
  8
0
100
AcDbBlockEnd
  0
BLOCK
  5
17D
330
173
100
AcDbEntity
  8
0
100
AcDbBlockBegin
  2
*D3
 70
     1
 10
0.0
 20
0.0
 30
0.0
  3
*D3
  1

  0
LINE
  5
507
330
173
100
AcDbEntity
  8
DIM
 62
     0
370
    -2
100
AcDbLine
 10
663.1285976921809
 20
505.9510487128914
 30
0.0
 11
663.1285976921809
 21
486.6010911971212
 31
0.0
  0
LINE
  5
508
330
173
100
AcDbEntity
  8
DIM
 62
     0
370
    -2
100
AcDbLine
 10
765.6285976921812
 20
505.9510487128914
 30
0.0
 11
765.6285976921812
 21
486.6010911971212
 31
0.0
  0
LINE
  5
509
330
173
100
AcDbEntity
  8
DIM
 62
     0
370
    -2
100
AcDbLine
 10
665.6285976921809
 20
487.8510911971212
 30
0.0
 11
763.1285976921811
 21
487.8510911971212
 31
0.0
  0
SOLID
  5
50A
330
173
100
AcDbEntity
  8
DIM
 62
     0
100
AcDbTrace
 10
665.6285976921809
 20
488.2677578637879
 30
0.0
 11
665.6285976921809
 21
487.4344245304546
 31
0.0
 12
663.1285976921809
 22
487.8510911971212
 32
0.0
 13
663.1285976921809
 23
487.8510911971212
 33
0.0
  0
SOLID
  5
50B
330
173
100
AcDbEntity
  8
DIM
 62
     0
100
AcDbTrace
 10
763.1285976921811
 20
488.2677578637879
 30
0.0
 11
763.1285976921811
 21
487.4344245304546
 31
0.0
 12
765.6285976921812
 22
487.8510911971212
 32
0.0
 13
765.6285976921812
 23
487.8510911971212
 33
0.0
  0
MTEXT
  5
50C
330
173
100
AcDbEntity
  8
DIM
 62
     0
100
AcDbMText
 10
714.3785976921811
 20
489.9344245304545
 30
0.0
 40
2.5
 41
0.0
 71
     5
 72
     1
  1
102,5
 73
     1
 44
1.0
1001
ACAD
1000
MTEXTBEGIN
1070
    73
1070
     1
1070
    44
1040
1.0
1070
    74
1070
     0
1000
MTEXTEND
  0
POINT
  5
50D
330
173
100
AcDbEntity
  8
Defpoints
 62
     0
100
AcDbPoint
 10
663.1285976921809
 20
506.5760487128915
 30
0.0
  0
POINT
  5
50E
330
173
100
AcDbEntity
  8
Defpoints
 62
     0
100
AcDbPoint
 10
765.6285976921812
 20
506.5760487128915
 30
0.0
  0
POINT
  5
50F
330
173
100
AcDbEntity
  8
Defpoints
 62
     0
100
AcDbPoint
 10
765.6285976921812
 20
487.8510911971212
 30
0.0
  0
ENDBLK
  5
17E
330
173
100
AcDbEntity
  8
0
100
AcDbBlockEnd
  0
BLOCK
  5
195
330
18B
100
AcDbEntity
  8
0
100
AcDbBlockBegin
  2
*D4
 70
     1
 10
0.0
 20
0.0
 30
0.0
  3
*D4
  1

  0
LINE
  5
6E9
330
18B
100
AcDbEntity
  8
DIM
 62
     0
370
    -2
100
AcDbLine
 10
667.0141396073081
 20
501.478875938684
 30
0.0
 11
667.0141396073081
 21
493.8434368332084
 31
0.0
  0
LINE
  5
6EA
330
18B
100
AcDbEntity
  8
DIM
 62
     0
370
    -2
100
AcDbLine
 10
680.5655218822585
 20
501.6361968558906
 30
0.0
 11
680.5655218822585
 21
493.8434368332084
 31
0.0
  0
LINE
  5
6EB
330
18B
100
AcDbEntity
  8
DIM
 62
     0
370
    -2
100
AcDbLine
 10
669.5141396073081
 20
495.0934368332084
 30
0.0
 11
678.0655218822585
 21
495.0934368332084
 31
0.0
  0
SOLID
  5
6EC
330
18B
100
AcDbEntity
  8
DIM
 62
     0
100
AcDbTrace
 10
669.5141396073081
 20
495.5101034998751
 30
0.0
 11
669.5141396073081
 21
494.6767701665417
 31
0.0
 12
667.0141396073081
 22
495.0934368332084
 32
0.0
 13
667.0141396073081
 23
495.0934368332084
 33
0.0
  0
SOLID
  5
6ED
330
18B
100
AcDbEntity
  8
DIM
 62
     0
100
AcDbTrace
 10
678.0655218822585
 20
495.5101034998751
 30
0.0
 11
678.0655218822585
 21
494.6767701665417
 31
0.0
 12
680.5655218822585
 22
495.0934368332084
 32
0.0
 13
680.5655218822585
 23
495.0934368332084
 33
0.0
  0
MTEXT
  5
6EE
330
18B
100
AcDbEntity
  8
DIM
 62
     0
100
AcDbMText
 10
673.7898307447833
 20
496.9684368332084
 30
0.0
 40
2.5
 41
0.0
 71
     5
 72
     1
  1
14
 73
     1
 44
1.0
1001
ACAD
1000
MTEXTBEGIN
1070
    73
1070
     1
1070
    44
1040
1.0
1070
    74
1070
     0
1000
MTEXTEND
  0
POINT
  5
6EF
330
18B
100
AcDbEntity
  8
Defpoints
 62
     0
100
AcDbPoint
 10
667.0141396073081
 20
502.1038759386841
 30
0.0
  0
POINT
  5
6F0
330
18B
100
AcDbEntity
  8
Defpoints
 62
     0
100
AcDbPoint
 10
680.5655218822585
 20
502.2611968558906
 30
0.0
  0
POINT
  5
6F1
330
18B
100
AcDbEntity
  8
Defpoints
 62
     0
100
AcDbPoint
 10
680.5655218822585
 20
495.0934368332084
 30
0.0
  0
ENDBLK
  5
196
330
18B
100
AcDbEntity
  8
0
100
AcDbBlockEnd
  0
BLOCK
  5
1E0
330
1D4
100
AcDbEntity
  8
0
100
AcDbBlockBegin
  2
*D6
 70
     1
 10
0.0
 20
0.0
 30
0.0
  3
*D6
  1

  0
LINE
  5
6DE
330
1D4
100
AcDbEntity
  8
DIM
 62
     0
370
    -2
100
AcDbLine
 10
662.6567966911661
 20
506.1661355325208
 30
0.0
 11
647.7669448825162
 21
493.2294387111875
 31
0.0
  0
LINE
  5
6DF
330
1D4
100
AcDbEntity
  8
DIM
 62
     0
370
    -2
100
AcDbLine
 10
666.5423386062933
 20
501.6939627583134
 30
0.0
 11
651.6524867976434
 21
488.7572659369801
 31
0.0
  0
LINE
  5
6E0
330
1D4
100
AcDbEntity
  8
DIM
 62
     0
370
    -2
100
AcDbLine
 10
647.0708941630635
 20
495.9364690759875
 30
0.0
 11
645.4312414415815
 21
497.8236730800466
 31
0.0
  0
LINE
  5
6E1
330
1D4
100
AcDbEntity
  8
DIM
 62
     0
370
    -2
100
AcDbLine
 10
654.2357415211549
 20
487.6898882936622
 30
0.0
 11
655.875394242637
 21
485.802684289603
 31
0.0
  0
LINE
  5
6E2
330
1D4
100
AcDbEntity
  8
DIM
 62
     0
370
    -2
100
AcDbLine
 10
648.7105468845457
 20
494.0492650719285
 30
0.0
 11
652.5960887996729
 21
489.5770922977212
 31
0.0
  0
SOLID
  5
6E3
330
1D4
100
AcDbEntity
  8
DIM
 62
     0
100
AcDbTrace
 10
647.38542816374
 20
496.2097445295679
 30
0.0
 11
646.756360162387
 21
495.6631936224073
 31
0.0
 12
648.7105468845457
 22
494.0492650719285
 32
0.0
 13
648.7105468845457
 23
494.0492650719285
 33
0.0
  0
SOLID
  5
6E4
330
1D4
100
AcDbEntity
  8
DIM
 62
     0
100
AcDbTrace
 10
654.5502755218314
 20
487.9631637472425
 30
0.0
 11
653.9212075204784
 21
487.4166128400819
 31
0.0
 12
652.5960887996729
 22
489.5770922977212
 32
0.0
 13
652.5960887996729
 23
489.5770922977212
 33
0.0
  0
MTEXT
  5
6E5
330
1D4
100
AcDbEntity
  8
DIM
 62
     0
100
AcDbMText
 10
652.0687208451534
 20
493.0429182259365
 30
0.0
 40
2.5
 41
0.0
 71
     5
 72
     1
  1
6
 11
0.6558610885928333
 21
-0.7548816016236082
 31
0.0
 73
     1
 44
1.0
1001
ACAD
1000
MTEXTBEGIN
1070
    73
1070
     1
1070
    44
1040
1.0
1070
    74
1070
     0
1000
MTEXTEND
  0
POINT
  5
6E6
330
1D4
100
AcDbEntity
  8
Defpoints
 62
     0
100
AcDbPoint
 10
663.1285976921808
 20
506.5760487128915
 30
0.0
  0
POINT
  5
6E7
330
1D4
100
AcDbEntity
  8
Defpoints
 62
     0
100
AcDbPoint
 10
667.014139607308
 20
502.1038759386841
 30
0.0
  0
POINT
  5
6E8
330
1D4
100
AcDbEntity
  8
Defpoints
 62
     0
100
AcDbPoint
 10
652.5960887996729
 20
489.5770922977212
 30
0.0
  0
ENDBLK
  5
1E1
330
1D4
100
AcDbEntity
  8
0
100
AcDbBlockEnd
  0
ENDSEC
  0
SECTION
  2
ENTITIES
  0
LINE
  5
12D
330
1F
100
AcDbEntity
  8
0
  6
Continuous
100
AcDbLine
 10
678.1793230126948
 20
501.7101785743496
 30
0.0
 11
678.9998047107639
 21
501.7101785743496
 31
0.0
  0
LINE
  5
131
102
{ACAD_REACTORS
330
189
330
1EE
102
}
330
1F
100
AcDbEntity
  8
0
  6
Continuous
100
AcDbLine
 10
663.1285976921809
 20
506.5760487128915
 30
0.0
 11
665.7045107273352
 21
503.0306085825988
 31
0.0
  0
ARC
  5
132
330
1F
100
AcDbEntity
  8
0
  6
Continuous
100
AcDbCircle
 10
669.5076875879292
 20
499.8278836580616
 30
0.0
 40
2.500000000000024
100
AcDbArc
 50
68.02218200907508
 51
110.8625237521573
  0
ARC
  5
133
102
{ACAD_REACTORS
330
1A1
330
1EE
102
}
330
1F
100
AcDbEntity
  8
0
  6
Continuous
100
AcDbCircle
 10
667.7270532132727
 20
504.5000717133299
 30
0.0
 40
2.5
100
AcDbArc
 50
216.0000000000001
 51
290.8625237521574
  0
ARC
  5
134
330
1F
100
AcDbEntity
  8
0
  6
Continuous
100
AcDbCircle
 10
672.6887922471111
 20
507.7101785743483
 30
0.0
 40
5.999999999999244
100
AcDbArc
 50
248.0221820090751
 51
291.4216519172686
  0
ARC
  5
135
330
1F
100
AcDbEntity
  8
0
  6
Continuous
100
AcDbCircle
 10
675.8674662921339
 20
499.8278836580616
 30
0.0
 40
2.500000000000099
100
AcDbArc
 50
59.62475271899581
 51
113.261045499181
  0
ARC
  5
136
330
1F
100
AcDbEntity
  8
0
  6
Continuous
100
AcDbCircle
 10
678.1429412278273
 20
503.7101785743491
 30
0.0
 40
2.000000000000029
100
AcDbArc
 50
239.6247527189958
 51
269.9999999999935
  0
LINE
  5
137
330
1F
100
AcDbEntity
  8
0
  6
Continuous
100
AcDbLine
 10
678.1429412278272
 20
501.710178574349
 30
0.0
 11
678.1964533213352
 21
501.710178574349
 31
0.0
  0
LINE
  5
138
330
1F
100
AcDbEntity
  8
0
  6
Continuous
100
AcDbLine
 10
681.44104802558
 20
503.6713547832399
 30
0.0
 11
694.902861091531
 21
558.9645318819025
 31
0.0
  0
ARC
  5
139
102
{ACAD_REACTORS
330
1A1
102
}
330
1F
100
AcDbEntity
  8
0
  6
Continuous
100
AcDbCircle
 10
678.9998047107639
 20
504.2101785743495
 30
0.0
 40
2.5
100
AcDbArc
 50
270.0
 51
347.5534052843264
  0
LINE
  5
13A
330
1F
100
AcDbEntity
  8
0
  6
Continuous
100
AcDbLine
 10
698.3206017322735
 20
561.7101785743491
 30
0.0
 11
714.3785976921811
 21
561.7101785743491
 31
0.0
  0
ARC
  5
13B
102
{ACAD_REACTORS
330
171
102
}
330
1F
100
AcDbEntity
  8
0
  6
Continuous
100
AcDbCircle
 10
698.3206017322735
 20
558.2101785743491
 30
0.0
 40
3.5
100
AcDbArc
 50
90.0
 51
167.5534052843265
  0
TEXT
  5
13C
330
1F
100
AcDbEntity
  8
0
  6
Continuous
100
AcDbText
 10
695.3393200589523
 20
466.9062534566872
 30
0.0
 40
5.0
  1
TOPSPAN 61  BATTEN
 41
0.75
  7
ISO3098B
100
AcDbText
  0
DIMENSION
  5
159
102
{ACAD_XDICTIONARY
360
167
102
}
102
{ACAD_REACTORS
330
171
102
}
330
1F
100
AcDbEntity
  8
DIM
100
AcDbDimension
  2
*D2
 10
732.628597692181
 20
568.2074017979623
 30
0.0
 11
714.3785976921811
 21
570.2907351312957
 31
0.0
 70
    32
 71
     5
 42
36.5
  3
ISO-25
100
AcDbAlignedDimension
 13
696.1285976921811
 23
560.9387529801916
 33
0.0
 14
732.628597692181
 24
560.9387529801916
 34
0.0
100
AcDbRotatedDimension
  0
DIMENSION
  5
172
102
{ACAD_XDICTIONARY
360
17F
102
}
102
{ACAD_REACTORS
330
189
102
}
330
1F
100
AcDbEntity
  8
DIM
100
AcDbDimension
  2
*D3
 10
765.6285976921812
 20
487.8510911971212
 30
0.0
 11
714.3785976921811
 21
489.9344245304545
 31
0.0
 70
    32
 71
     5
 42
102.5000000000002
  3
ISO-25
100
AcDbAlignedDimension
 13
663.1285976921809
 23
506.5760487128915
 33
0.0
 14
765.6285976921812
 24
506.5760487128915
 34
0.0
100
AcDbRotatedDimension
  0
DIMENSION
  5
18A
102
{ACAD_XDICTIONARY
360
197
102
}
102
{ACAD_REACTORS
330
1A1
102
}
330
1F
100
AcDbEntity
  8
DIM
100
AcDbDimension
  2
*D4
 10
680.5655218822585
 20
495.0934368332084
 30
0.0
 11
673.7898307447833
 21
496.9684368332084
 31
0.0
 70
    32
  1
14
 71
     5
 42
13.55138227495035
  3
ISO-25
100
AcDbAlignedDimension
 13
667.0141396073081
 23
502.1038759386841
 33
0.0
 14
680.5655218822585
 24
502.2611968558906
 34
0.0
100
AcDbRotatedDimension
  0
DIMENSION
  5
1D3
102
{ACAD_XDICTIONARY
360
1E2
102
}
102
{ACAD_REACTORS
330
1EE
102
}
330
1F
100
AcDbEntity
  8
DIM
100
AcDbDimension
  2
*D6
 10
652.5960887996729
 20
489.5770922977212
 30
0.0
 11
652.0687208451534
 21
493.0429182259365
 31
0.0
 70
    33
  1
6
 71
     5
 42
5.924336696759553
  3
ISO-25
100
AcDbAlignedDimension
 13
663.1285976921809
 23
506.5760487128915
 33
0.0
 14
667.0141396073081
 24
502.1038759386841
 34
0.0
  0
LINE
  5
1F2
330
1F
100
AcDbEntity
  8
DIM
100
AcDbLine
 10
663.1285976921809
 20
510.0560067996195
 30
0.0
 11
663.1285976921809
 21
477.8043920588809
 31
0.0
  0
LINE
  5
210
330
1F
100
AcDbEntity
  8
0
  6
Continuous
100
AcDbLine
 10
750.5778723716673
 20
501.7101785743496
 30
0.0
 11
749.7573906735982
 21
501.7101785743496
 31
0.0
  0
LINE
  5
211
330
1F
100
AcDbEntity
  8
0
  6
Continuous
100
AcDbLine
 10
765.6285976921812
 20
506.5760487128915
 30
0.0
 11
763.0526846570269
 21
503.0306085825988
 31
0.0
  0
ARC
  5
212
330
1F
100
AcDbEntity
  8
0
  6
Continuous
100
AcDbCircle
 10
759.2495077964329
 20
499.8278836580616
 30
0.0
 40
2.500000000000024
100
AcDbArc
 50
69.1374762478422
 51
111.9778179909246
  0
ARC
  5
213
330
1F
100
AcDbEntity
  8
0
  6
Continuous
100
AcDbCircle
 10
761.0301421710894
 20
504.5000717133299
 30
0.0
 40
2.5
100
AcDbArc
 50
249.1374762478422
 51
324.0000000000031
  0
ARC
  5
214
330
1F
100
AcDbEntity
  8
0
  6
Continuous
100
AcDbCircle
 10
756.068403137251
 20
507.7101785743483
 30
0.0
 40
5.999999999999244
100
AcDbArc
 50
248.5783480827314
 51
291.9778179909247
  0
ARC
  5
215
330
1F
100
AcDbEntity
  8
0
  6
Continuous
100
AcDbCircle
 10
752.8897290922282
 20
499.8278836580616
 30
0.0
 40
2.500000000000099
100
AcDbArc
 50
66.73895450081326
 51
120.3752472810097
  0
ARC
  5
216
330
1F
100
AcDbEntity
  8
0
  6
Continuous
100
AcDbCircle
 10
750.6142541565347
 20
503.7101785743491
 30
0.0
 40
2.000000000000029
100
AcDbArc
 50
270.000000000013
 51
300.3752472810098
  0
LINE
  5
217
330
1F
100
AcDbEntity
  8
0
  6
Continuous
100
AcDbLine
 10
750.6142541565349
 20
501.710178574349
 30
0.0
 11
750.5607420630269
 21
501.710178574349
 31
0.0
  0
LINE
  5
218
330
1F
100
AcDbEntity
  8
0
  6
Continuous
100
AcDbLine
 10
747.3161473587821
 20
503.6713547832399
 30
0.0
 11
733.8543342928311
 21
558.9645318819025
 31
0.0
  0
ARC
  5
219
330
1F
100
AcDbEntity
  8
0
  6
Continuous
100
AcDbCircle
 10
749.7573906735982
 20
504.2101785743495
 30
0.0
 40
2.5
100
AcDbArc
 50
192.4465947156739
 51
270.0
  0
LINE
  5
21A
330
1F
100
AcDbEntity
  8
0
  6
Continuous
100
AcDbLine
 10
730.4365936520886
 20
561.7101785743491
 30
0.0
 11
714.3785976921811
 21
561.7101785743491
 31
0.0
  0
ARC
  5
21B
330
1F
100
AcDbEntity
  8
0
  6
Continuous
100
AcDbCircle
 10
730.4365936520886
 20
558.2101785743491
 30
0.0
 40
3.5
100
AcDbArc
 50
12.44659471567394
 51
90.0
  0
ENDSEC
  0
SECTION
  2
OBJECTS
  0
DICTIONARY
  5
C
330
0
100
AcDbDictionary
281
     1
  3
ACAD_COLOR
350
6B
  3
ACAD_GROUP
350
D
  3
ACAD_LAYOUT
350
1A
  3
ACAD_MATERIAL
350
6A
  3
ACAD_MLINESTYLE
350
17
  3
ACAD_PLOTSETTINGS
350
19
  3
ACAD_PLOTSTYLENAME
350
E
  3
ACAD_TABLESTYLE
350
7E
  3
ACDBHEADERROUNDTRIPXREC
350
6F7
  3
AcDbVariableDictionary
350
5E
  3
DWGPROPS
350
6F6
  0
DICTIONARY
  5
EB
330
2
100
AcDbDictionary
280
     1
281
     1
  3
ACAD_LAYERFILTERS
360
158
  3
ACAD_LAYERSTATES
360
EC
  3
ACLYDICTIONARY
360
157
  0
DICTIONARY
  5
E6
330
E5
100
AcDbDictionary
280
     1
281
     1
  3
ADSK_XREC_LAYER_RECONCILED
360
E7
  0
DICTIONARY
  5
1A4
330
1F
100
AcDbDictionary
280
     1
281
     1
  3
ACAD_SORTENTS
360
1A5
  0
DICTIONARY
  5
167
330
159
100
AcDbDictionary
280
     1
281
     1
  3
ACAD_DIMASSOC
360
171
  0
DICTIONARY
  5
17F
330
172
100
AcDbDictionary
280
     1
281
     1
  3
ACAD_DIMASSOC
360
189
  0
DICTIONARY
  5
197
330
18A
100
AcDbDictionary
280
     1
281
     1
  3
ACAD_DIMASSOC
360
1A1
  0
DICTIONARY
  5
1E2
330
1D3
100
AcDbDictionary
280
     1
281
     1
  3
ACAD_DIMASSOC
360
1EE
  0
DICTIONARY
  5
6B
102
{ACAD_REACTORS
330
C
102
}
330
C
100
AcDbDictionary
281
     1
  0
DICTIONARY
  5
D
102
{ACAD_REACTORS
330
C
102
}
330
C
100
AcDbDictionary
281
     1
  0
DICTIONARY
  5
1A
102
{ACAD_REACTORS
330
C
102
}
330
C
100
AcDbDictionary
281
     1
  3
Layout1
350
D3
  3
Layout2
350
D7
  3
Model
350
22
  0
DICTIONARY
  5
6A
102
{ACAD_REACTORS
330
C
102
}
330
C
100
AcDbDictionary
281
     1
  0
DICTIONARY
  5
17
102
{ACAD_REACTORS
330
C
102
}
330
C
100
AcDbDictionary
281
     1
  3
Standard
350
18
  0
DICTIONARY
  5
19
102
{ACAD_REACTORS
330
C
102
}
330
C
100
AcDbDictionary
281
     1
  0
ACDBDICTIONARYWDFLT
  5
E
102
{ACAD_REACTORS
330
C
102
}
330
C
100
AcDbDictionary
281
     1
  3
Normal
350
F
100
AcDbDictionaryWithDefault
340
F
  0
DICTIONARY
  5
7E
102
{ACAD_REACTORS
330
C
102
}
330
C
100
AcDbDictionary
281
     1
  3
Standard
350
7F
  0
DICTIONARY
  5
6F7
102
{ACAD_REACTORS
330
C
102
}
330
C
100
AcDbDictionary
281
     1
  0
DICTIONARY
  5
5E
102
{ACAD_REACTORS
330
C
102
}
330
C
100
AcDbDictionary
281
     1
  3
CTABLESTYLE
350
84
  3
DIMASSOC
350
5F
  3
HIDETEXT
350
63
  3
PROJECTNAME
350
6F4
  0
XRECORD
  5
6F6
102
{ACAD_REACTORS
330
C
102
}
330
C
100
AcDbXrecord
280
     1
  1
DWGPROPS COOKIE
  2

  3

  4

  6

  7

  8
Autodesk
  9

300
=
301
=
302
=
303
=
304
=
305
=
306
=
307
=
308
=
309
=
 40
0.0124086689814815
 41
2456671.674003183
 42
2456671.686411667
  1

 90
        0
  0
DICTIONARY
  5
158
102
{ACAD_REACTORS
330
EB
102
}
330
EB
100
AcDbDictionary
281
     1
  0
DICTIONARY
  5
EC
102
{ACAD_REACTORS
330
EB
102
}
330
EB
100
AcDbDictionary
281
     1
  0
DICTIONARY
  5
157
102
{ACAD_REACTORS
330
EB
102
}
330
EB
100
AcDbDictionary
281
     1
1001
ACAD
1000
<All
  0
XRECORD
  5
E7
102
{ACAD_REACTORS
330
E6
102
}
330
E6
100
AcDbXrecord
280
     1
290
     1
  0
SORTENTSTABLE
  5
1A5
102
{ACAD_REACTORS
330
1A4
102
}
330
1A4
100
AcDbSortentsTable
330
1F
331
138
  5
138
331
1F2
  5
1F2
331
172
  5
172
331
136
  5
136
331
134
  5
134
331
132
  5
132
331
18A
  5
18A
331
13B
  5
13B
331
139
  5
139
331
159
  5
159
331
137
  5
137
331
135
  5
135
331
133
  5
133
331
1D3
  5
1D3
331
131
  5
131
331
12D
  5
12D
331
13C
  5
13C
331
13A
  5
13A
  0
DIMASSOC
  5
171
102
{ACAD_REACTORS
330
167
102
}
330
167
100
AcDbDimAssoc
330
159
 90
        1
 70
     0
 71
     0
  1
AcDbOsnapPointRef
 72
     2
331
13B
 73
     2
 91
        0
 40
2.247577460967444
 10
0.0
 20
0.0
 30
0.0
 75
     0
  0
DIMASSOC
  5
189
102
{ACAD_REACTORS
330
17F
102
}
330
17F
100
AcDbDimAssoc
330
172
 90
        1
 70
     0
 71
     0
  1
AcDbOsnapPointRef
 72
    13
331
131
 73
     2
 91
        0
 40
0.0
 10
0.0
 20
0.0
 30
2.000000000000000E+50
 75
     0
  0
DIMASSOC
  5
1A1
102
{ACAD_REACTORS
330
197
102
}
330
197
100
AcDbDimAssoc
330
18A
 90
        3
 70
     0
 71
     0
  1
AcDbOsnapPointRef
 72
     2
331
133
 73
     2
 91
        0
 40
4.423209947221537
 10
0.0
 20
0.0
 30
0.0
 75
     0
  1
AcDbOsnapPointRef
 72
     2
331
139
 73
     2
 91
        0
 40
5.389170114557227
 10
0.0
 20
0.0
 30
0.0
 75
     0
  0
DIMASSOC
  5
1EE
102
{ACAD_REACTORS
330
1E2
102
}
330
1E2
100
AcDbDimAssoc
330
1D3
 90
        3
 70
     0
 71
     0
  1
AcDbOsnapPointRef
 72
    13
331
131
 73
     2
 91
        0
 40
0.0
 10
0.0
 20
0.0
 30
2.000000000000000E+50
 75
     0
  1
AcDbOsnapPointRef
 72
     2
331
133
 73
     2
 91
        0
 40
4.423209947221537
 10
0.0
 20
0.0
 30
0.0
 75
     0
  0
LAYOUT
  5
D3
102
{ACAD_XDICTIONARY
360
6FA
102
}
102
{ACAD_REACTORS
330
1A
102
}
330
1A
100
AcDbPlotSettings
  1

  2
C:\Documents and Settings\basas\Application Data\Autodesk\AutoCAD 2005\R16.1\enu\plotters\Default Windows System Printer.pc3
  4

  6

 40
0.0
 41
0.0
 42
0.0
 43
0.0
 44
0.0
 45
0.0
 46
0.0
 47
0.0
 48
0.0
 49
0.0
140
0.0
141
0.0
142
1.0
143
1.0
 70
   688
 72
     0
 73
     0
 74
     5
  7

 75
    16
147
1.0
148
0.0
149
0.0
100
AcDbLayout
  1
Layout1
 70
     1
 71
     1
 10
0.0
 20
0.0
 11
12.0
 21
9.0
 12
0.0
 22
0.0
 32
0.0
 14
0.0
 24
0.0
 34
0.0
 15
0.0
 25
0.0
 35
0.0
146
0.0
 13
0.0
 23
0.0
 33
0.0
 16
1.0
 26
0.0
 36
0.0
 17
0.0
 27
1.0
 37
0.0
 76
     0
330
D2
  0
LAYOUT
  5
D7
102
{ACAD_XDICTIONARY
360
6FC
102
}
102
{ACAD_REACTORS
330
1A
102
}
330
1A
100
AcDbPlotSettings
  1

  2
C:\Documents and Settings\basas\Application Data\Autodesk\AutoCAD 2005\R16.1\enu\plotters\Default Windows System Printer.pc3
  4

  6

 40
0.0
 41
0.0
 42
0.0
 43
0.0
 44
0.0
 45
0.0
 46
0.0
 47
0.0
 48
0.0
 49
0.0
140
0.0
141
0.0
142
1.0
143
1.0
 70
   688
 72
     0
 73
     0
 74
     5
  7

 75
    16
147
1.0
148
0.0
149
0.0
100
AcDbLayout
  1
Layout2
 70
     1
 71
     2
 10
0.0
 20
0.0
 11
12.0
 21
9.0
 12
0.0
 22
0.0
 32
0.0
 14
0.0
 24
0.0
 34
0.0
 15
0.0
 25
0.0
 35
0.0
146
0.0
 13
0.0
 23
0.0
 33
0.0
 16
1.0
 26
0.0
 36
0.0
 17
0.0
 27
1.0
 37
0.0
 76
     0
330
D6
  0
LAYOUT
  5
22
102
{ACAD_XDICTIONARY
360
6F8
102
}
102
{ACAD_REACTORS
330
1A
102
}
330
1A
100
AcDbPlotSettings
  1

  2
none_device
  4
ISO_A4_(210.00_x_297.00_MM)
  6

 40
7.5
 41
20.0
 42
7.5
 43
20.0
 44
210.0
 45
297.0
 46
11.54999923706054
 47
-13.65000009536743
 48
0.0
 49
0.0
140
0.0
141
0.0
142
1.0
143
8.704084754739808
 70
 11952
 72
     1
 73
     0
 74
     0
  7

 75
     0
147
0.1148885871608098
148
0.0
149
0.0
100
AcDbLayout
  1
Model
 70
     1
 71
     0
 10
0.0
 20
0.0
 11
12.0
 21
9.0
 12
0.0
 22
0.0
 32
0.0
 14
0.0
 24
0.0
 34
0.0
 15
0.0
 25
0.0
 35
0.0
146
0.0
 13
0.0
 23
0.0
 33
0.0
 16
1.0
 26
0.0
 36
0.0
 17
0.0
 27
1.0
 37
0.0
 76
     0
330
1F
1001
ACAD_PSEXT
1000
None
1000
None
1000
Not applicable
1000
The layout will not be plotted unless a new plotter configuration name is selected.
1070
     0
  0
MLINESTYLE
  5
18
102
{ACAD_REACTORS
330
17
102
}
330
17
100
AcDbMlineStyle
  2
STANDARD
 70
     0
  3

 62
   256
 51
90.0
 52
90.0
 71
     2
 49
0.5
 62
   256
  6
BYLAYER
 49
-0.5
 62
   256
  6
BYLAYER
  0
ACDBPLACEHOLDER
  5
F
102
{ACAD_REACTORS
330
E
102
}
330
E
  0
TABLESTYLE
  5
7F
102
{ACAD_REACTORS
330
7E
102
}
330
7E
100
AcDbTableStyle
  3
Standard
 70
     0
 71
     0
 40
1.5
 41
1.5
280
     0
281
     0
  7
Standard
140
4.5
170
     2
 62
     0
 63
     7
283
     0
274
    -2
284
     1
 64
     0
275
    -2
285
     1
 65
     0
276
    -2
286
     1
 66
     0
277
    -2
287
     1
 67
     0
278
    -2
288
     1
 68
     0
279
    -2
289
     1
 69
     0
  7
Standard
140
6.0
170
     5
 62
     0
 63
     7
283
     0
274
    -2
284
     1
 64
     0
275
    -2
285
     1
 65
     0
276
    -2
286
     1
 66
     0
277
    -2
287
     1
 67
     0
278
    -2
288
     1
 68
     0
279
    -2
289
     1
 69
     0
  7
Standard
140
4.5
170
     5
 62
     0
 63
     7
283
     0
274
    -2
284
     1
 64
     0
275
    -2
285
     1
 65
     0
276
    -2
286
     1
 66
     0
277
    -2
287
     1
 67
     0
278
    -2
288
     1
 68
     0
279
    -2
289
     1
 69
     0
  0
DICTIONARYVAR
  5
84
102
{ACAD_REACTORS
330
5E
102
}
330
5E
100
DictionaryVariables
280
     0
  1
STANDARD
  0
DICTIONARYVAR
  5
5F
102
{ACAD_REACTORS
330
5E
102
}
330
5E
100
DictionaryVariables
280
     0
  1
2
  0
DICTIONARYVAR
  5
63
102
{ACAD_REACTORS
330
5E
102
}
330
5E
100
DictionaryVariables
280
     0
  1
1
  0
DICTIONARYVAR
  5
6F4
102
{ACAD_REACTORS
330
5E
102
}
330
5E
100
DictionaryVariables
280
     0
  1

  0
DICTIONARY
  5
6FA
330
D3
100
AcDbDictionary
280
     1
281
     1
  3
ACAD_XREC_ROUNDTRIP
360
6FB
  0
DICTIONARY
  5
6FC
330
D7
100
AcDbDictionary
280
     1
281
     1
  3
ACAD_XREC_ROUNDTRIP
360
6FD
  0
DICTIONARY
  5
6F8
330
22
100
AcDbDictionary
280
     1
281
     1
  3
ACAD_XREC_ROUNDTRIP
360
6F9
  0
XRECORD
  5
6FB
102
{ACAD_REACTORS
330
6FA
102
}
330
6FA
100
AcDbXrecord
280
     1
102
SHADEPLOT
 70
     0
102
SHADEPLOTRESLEVEL
 70
     2
102
SHADEPLOTCUSTOMDPI
 70
   300
  0
XRECORD
  5
6FD
102
{ACAD_REACTORS
330
6FC
102
}
330
6FC
100
AcDbXrecord
280
     1
102
SHADEPLOT
 70
     0
102
SHADEPLOTRESLEVEL
 70
     2
102
SHADEPLOTCUSTOMDPI
 70
   300
  0
XRECORD
  5
6F9
102
{ACAD_REACTORS
330
6F8
102
}
330
6F8
100
AcDbXrecord
280
     1
102
SHADEPLOT
 70
     0
102
SHADEPLOTRESLEVEL
 70
     2
102
SHADEPLOTCUSTOMDPI
 70
   300
  0
ENDSEC
  0
EOF
